<?xml version="1.0" standalone="no"?>
<!DOCTYPE svg PUBLIC "-//W3C//DTD SVG 1.1//EN" "http://www.w3.org/Graphics/SVG/1.1/DTD/svg11.dtd" >
<svg xmlns="http://www.w3.org/2000/svg">
<metadata>Generated by IcoMoon</metadata>
<defs>
<font id="LineIcons" horiz-adv-x="1024">
<font-face units-per-em="1024" ascent="960" descent="-64" />
<missing-glyph horiz-adv-x="1024" />
<glyph unicode="&#x20;" horiz-adv-x="512" d="" />
<glyph unicode="&#xe900;" glyph-name="add-files" d="M875.52 952.832h-719.872c-11.264 0-20.48-9.216-20.48-20.48v-662.528c0-3.072 1.024-5.12 3.072-7.168l327.68-316.416c2.048-2.048 4.096-3.072 7.168-3.072h402.432c11.264 0 20.48 9.216 20.48 20.48v968.704c0 11.264-9.216 20.48-20.48 20.48zM453.632 29.184l-229.376 222.208h225.28c3.072 0 5.12-2.048 5.12-5.12v-217.088zM844.8-5.632h-339.968v286.72c0 11.264-9.216 20.48-20.48 20.48h-297.984v600.064h658.432v-907.264zM329.728 560.64h160.768v-160.768c0-14.336 11.264-25.6 25.6-25.6s25.6 11.264 25.6 25.6v160.768h160.768c14.336 0 25.6 11.264 25.6 25.6s-12.288 25.6-26.624 25.6h-160.768v160.768c0 14.336-11.264 25.6-25.6 25.6s-25.6-11.264-25.6-25.6v-160.768h-159.744c-14.336 0-25.6-11.264-25.6-25.6s11.264-25.6 25.6-25.6z" />
<glyph unicode="&#xe901;" glyph-name="agenda" d="M815.104 884.224c0 14.336-12.288 26.624-26.624 26.624h-552.96c-14.336 0-26.624-12.288-26.624-26.624v-771.072c0-14.336 12.288-26.624 26.624-26.624h4.096v-81.92c0-14.336 12.288-26.624 26.624-26.624h4.096l50.176 17.408 49.152-17.408h4.096c14.336 0 26.624 12.288 26.624 26.624v81.92h389.12c14.336 0 25.6 11.264 25.6 25.6v772.096zM763.904 698.88h-72.704v160.768h72.704v-160.768zM691.2 647.68h72.704v-279.552h-71.68l-1.024 279.552zM640 368.128h-379.904v279.552h379.904v-279.552zM640 859.648v-160.768h-379.904v160.768h379.904zM349.184 39.424l-28.672 10.24-29.696-10.24v47.104h58.368v-47.104zM260.096 137.728v179.2h379.904v-179.2h-379.904zM691.2 137.728v179.2h71.68v-179.2h-71.68z" />
<glyph unicode="&#xe902;" glyph-name="alarm-clock" d="M840.704 690.688c9.216 24.576 10.24 49.152 5.12 73.728-8.192 34.816-29.696 65.536-59.392 86.016-20.48 12.288-41.984 19.456-67.584 20.48-10.24 1.024-21.504 0-34.816-3.072h-1.024c-24.576-6.144-45.056-17.408-61.44-32.768-25.6 7.168-52.224 11.264-78.848 13.312v17.408h3.072c8.192 0 15.36 7.168 16.384 16.384 0 9.216-7.168 16.384-16.384 16.384h-67.584c-9.216 0-16.384-7.168-16.384-16.384s7.168-16.384 16.384-16.384h3.072v-16.384c-26.624-2.048-53.248-6.144-78.848-12.288-16.384 14.336-35.84 24.576-59.392 30.72h-1.024c-13.312 2.048-24.576 2.048-34.816 2.048-25.6-1.024-47.104-7.168-67.584-20.48-29.696-20.48-51.2-51.2-59.392-86.016-6.144-23.552-5.12-46.080 2.048-68.608-59.392-72.704-95.232-165.888-95.232-267.264 0-233.472 189.44-422.912 422.912-422.912s422.912 189.44 422.912 422.912c0 99.328-34.816 190.464-92.16 263.168zM694.272 817.664c8.192 2.048 15.36 2.048 21.504 2.048 16.384 0 29.696-4.096 43.008-12.288 19.456-14.336 32.768-33.792 37.888-56.32 1.024-5.12 2.048-9.216 2.048-14.336l-2.048 1.024c-33.792 30.72-72.704 56.32-114.688 75.776 4.096 1.024 7.168 3.072 12.288 4.096zM267.264 807.424c13.312 7.168 26.624 11.264 43.008 12.288 6.144 0 13.312 0 21.504-2.048 3.072-1.024 6.144-1.024 9.216-2.048-41.984-18.432-79.872-43.008-113.664-72.704 0 3.072 1.024 6.144 2.048 10.24 5.12 21.504 18.432 40.96 37.888 54.272zM509.952 55.808c-204.8 0-371.712 166.912-371.712 371.712s166.912 371.712 371.712 371.712 371.712-166.912 371.712-371.712-166.912-371.712-371.712-371.712zM777.216 410.112h-270.336v271.36c0 14.336-11.264 25.6-25.6 25.6s-25.6-11.264-25.6-25.6v-271.36c-14.336 0-25.6-11.264-25.6-25.6s11.264-25.6 25.6-25.6c0-14.336 11.264-25.6 25.6-25.6s25.6 11.264 25.6 25.6h271.36c14.336 0 25.6 11.264 25.6 25.6-1.024 14.336-12.288 25.6-26.624 25.6z" />
<glyph unicode="&#xe903;" glyph-name="alarm" d="M828.416 155.136c-6.144 7.168-10.24 19.456-10.24 31.744 0 68.608 0 276.48 1.024 293.888v6.144c0 181.248-113.664 332.8-264.192 360.448-2.048 16.384-10.24 29.696-23.552 37.888-16.384 10.24-35.84 11.264-53.248 2.048-15.36-8.192-25.6-23.552-26.624-39.936-147.456-30.72-258.048-183.296-258.048-362.496v-297.984c0-9.216-5.12-20.48-15.36-31.744l-15.36-16.384c-8.192-8.192-10.24-19.456-6.144-28.672 4.096-10.24 14.336-16.384 24.576-16.384h232.448c0-3.072 0-7.168 0-10.24 0-60.416 39.936-109.568 88.064-109.568 49.152 0 88.064 48.128 88.064 109.568 0 3.072 0 7.168 0 10.24l234.496 1.024c13.312 0 26.624 10.24 26.624 27.648v10.24l-22.528 22.528zM503.808 841.216v0c1.024 0 1.024-1.024 1.024-3.072v-1.024l-2.048 2.048c0 2.048 1.024 2.048 1.024 2.048zM502.784 23.040c-17.408 0-36.864 24.576-36.864 58.368 0 3.072 0 7.168 1.024 10.24h72.704c0-3.072 1.024-7.168 1.024-10.24-1.024-30.72-18.432-58.368-37.888-58.368zM559.104 142.848v0h-326.656c8.192 14.336 12.288 28.672 12.288 43.008v297.984c0 163.84 105.472 302.080 239.616 315.392l17.408 2.048 22.528-2.048c137.216-10.24 243.712-147.456 243.712-312.32v-3.072c-1.024-12.288-1.024-61.44-1.024-296.96 0-15.36 3.072-29.696 9.216-43.008l-217.088-1.024z" />
<glyph unicode="&#xe904;" glyph-name="amazon" d="M867.328 156.16c-2.048-1.024-6.144-3.072-11.264-5.12s-9.216-4.096-12.288-5.12c-106.496-40.96-215.040-61.44-324.608-61.44-163.84 0-316.416 40.96-455.68 121.856-6.144 4.096-10.24 4.096-13.312-1.024 0-1.024-1.024-3.072-1.024-5.12 0-3.072 2.048-5.12 5.12-8.192 61.44-55.296 131.072-98.304 208.896-129.024s159.744-46.080 246.784-46.080c56.32 0 114.688 8.192 173.056 23.552 59.392 15.36 112.64 37.888 160.768 66.56 15.36 9.216 28.672 17.408 38.912 25.6 8.192 5.12 9.216 11.264 5.12 18.432-5.12 7.168-11.264 8.192-20.48 5.12zM524.288 529.92v0h-1.024c-73.728 0-120.832-34.816-139.264-102.4-9.216-31.744-7.168-59.392 3.072-81.92 11.264-24.576 30.72-40.96 58.368-48.128 4.096-1.024 7.168-1.024 9.216-1.024l4.096-1.024 3.072 1.024 2.048-1.024h5.12c34.816 1.024 64.512 15.36 92.16 43.008l1.024 1.024c12.288 14.336 22.528 27.648 30.72 41.984 8.192 13.312 15.36 27.648 19.456 40.96l4.096 15.36h1.024l19.456 72.704-31.744 9.216c-27.648 5.12-54.272 9.216-80.896 10.24zM548.864 438.784c-2.048-7.168-9.216-19.456-12.288-25.6-6.144-10.24-12.288-20.48-21.504-29.696-13.312-14.336-26.624-20.48-41.984-22.528-2.048 0-5.12 1.024-8.192 1.024 0 0-1.024 0-1.024 0-1.024 0-1.024 0-2.048 0-7.168 3.072-10.24 7.168-12.288 11.264l-1.024 2.048c-4.096 7.168-3.072 20.48 1.024 35.84 10.24 38.912 31.744 54.272 75.776 54.272 8.192 0 18.432-1.024 31.744-3.072l-8.192-23.552zM492.544 634.368c-56.32-7.168-107.52-19.456-146.432-36.864-46.080-18.432-82.944-47.104-108.544-86.016-26.624-37.888-39.936-83.968-39.936-136.192 0-67.584 19.456-118.784 59.392-157.696 39.936-36.864 89.088-55.296 147.456-55.296 35.84 0 68.608 4.096 95.232 12.288 36.864 11.264 73.728 34.816 111.616 72.704 1.024-2.048 2.048-3.072 4.096-5.12 5.12-7.168 9.216-12.288 11.264-15.36 0-1.024 1.024-1.024 1.024-1.024l1.024-2.048c4.096-6.144 10.24-12.288 19.456-21.504 7.168-9.216 15.36-16.384 25.6-25.6l5.12-4.096 6.144-2.048c17.408-6.144 34.816-2.048 47.104 9.216 2.048 2.048 13.312 11.264 25.6 22.528 15.36 13.312 38.912 32.768 67.584 58.368 10.24 7.168 16.384 17.408 16.384 29.696 0 9.216-3.072 18.432-10.24 27.648l-1.024 1.024c-6.144 7.168-11.264 14.336-15.36 19.456-3.072 4.096-6.144 8.192-8.192 11.264-4.096 6.144-9.216 17.408-14.336 30.72-5.12 12.288-7.168 26.624-7.168 45.056v261.12c0 9.216 0 18.432-1.024 28.672-1.024 14.336-2.048 21.504-3.072 26.624l-1.024 6.144c0 2.048-1.024 4.096-2.048 6.144-1.024 5.12-3.072 10.24-5.12 18.432-3.072 13.312-6.144 21.504-8.192 26.624l-2.048 5.12c-3.072 6.144-6.144 11.264-10.24 16.384-2.048 2.048-3.072 5.12-5.12 7.168-7.168 10.24-15.36 18.432-22.528 26.624l-1.024 1.024c-48.128 44.032-116.736 67.584-203.776 67.584h-27.648c-64.512-3.072-124.928-22.528-175.104-54.272-51.2-32.768-82.944-81.92-97.28-149.504-2.048-5.12-3.072-9.216-3.072-13.312v-13.312l9.216-9.216c4.096-4.096 10.24-8.192 18.432-10.24l3.072-1.024 133.12-17.408 9.216 4.096c9.216 4.096 20.48 14.336 24.576 35.84 4.096 18.432 12.288 31.744 26.624 43.008l1.024 1.024c13.312 10.24 29.696 16.384 51.2 19.456h9.216c34.816 0 49.152-13.312 57.344-25.6v0c8.192-11.264 12.288-39.936 12.288-84.992v-2.048c-34.816-6.144-61.44-8.192-79.872-11.264zM614.4 767.488c-24.576 35.84-62.464 53.248-111.616 53.248h-13.312c-33.792-3.072-63.488-14.336-87.040-32.768-22.528-17.408-37.888-38.912-47.104-65.536l-63.488 8.192c12.288 36.864 31.744 63.488 61.44 81.92 39.936 25.6 89.088 40.96 141.312 44.032h25.6c68.608 0 121.856-16.384 157.696-50.176 5.12-5.12 10.24-10.24 14.336-15.36 2.048-3.072 4.096-6.144 6.144-9.216 2.048-2.048 4.096-5.12 5.12-7.168 0-1.024 1.024-2.048 1.024-3.072 1.024-3.072 3.072-7.168 4.096-13.312 2.048-10.24 4.096-18.432 6.144-23.552 0-1.024 0-2.048 1.024-2.048 0 0 0 0 0-1.024 0-2.048 1.024-8.192 2.048-22.528 1.024-8.192 1.024-16.384 1.024-23.552v-261.12c0-26.624 4.096-48.128 11.264-68.608 7.168-19.456 13.312-33.792 22.528-46.080l1.024-1.024c2.048-2.048 4.096-5.12 7.168-9.216 1.024-1.024 2.048-3.072 3.072-4.096-20.48-17.408-36.864-31.744-50.176-43.008-5.12-4.096-9.216-8.192-12.288-10.24-1.024 1.024-2.048 3.072-4.096 4.096l-2.048 2.048c-4.096 4.096-10.24 10.24-11.264 11.264-2.048 3.072-3.072 5.12-5.12 7.168-2.048 3.072-5.12 7.168-10.24 13.312l-1.024 1.024c-7.168 10.24-12.288 17.408-14.336 20.48l-37.888 47.104-38.912-43.008c-34.816-36.864-66.56-60.416-96.256-68.608-20.48-6.144-47.104-9.216-76.8-9.216-41.984 0-75.776 12.288-102.4 36.864-26.624 25.6-38.912 60.416-38.912 109.568 0 38.912 9.216 71.68 28.672 99.328 18.432 27.648 45.056 48.128 79.872 62.464s78.848 25.6 130.048 31.744c18.432 2.048 50.176 5.12 94.208 8.192l45.056 4.096v63.488c-1.024 62.464-8.192 99.328-25.6 123.904zM967.68 213.504c-5.12 6.144-20.48 10.24-45.056 12.288-5.12 1.024-10.24 1.024-16.384 1.024-20.48-1.024-40.96-4.096-62.464-9.216-13.312-3.072-26.624-10.24-39.936-19.456-2.048-2.048-4.096-4.096-5.12-7.168-1.024-1.024-1.024-2.048-1.024-2.048-1.024-1.024 0-2.048 1.024-3.072s3.072-2.048 7.168-2.048c11.264 2.048 24.576 3.072 38.912 5.12 13.312 1.024 23.552 2.048 33.792 2.048 25.6 0 40.96-3.072 47.104-10.24 2.048-3.072 3.072-7.168 3.072-13.312 0-19.456-10.24-53.248-30.72-101.376-2.048-4.096-1.024-7.168 2.048-9.216 1.024-1.024 2.048-1.024 3.072-1.024 2.048 0 5.12 1.024 7.168 3.072 19.456 16.384 33.792 37.888 44.032 64.512s16.384 49.152 16.384 69.632v6.144c0 5.12-1.024 10.24-3.072 14.336z" />
<glyph unicode="&#xe905;" glyph-name="amex" d="M980.992 152.064h-935.936c-14.336 0-25.6 11.264-25.6 25.6v539.648c0 14.336 11.264 25.6 25.6 25.6h935.936c14.336 0 25.6-11.264 25.6-25.6v-538.624c0-14.336-12.288-26.624-25.6-26.624zM70.656 203.264h884.736v488.448h-884.736v-488.448zM186.368 387.584h84.992l12.288-48.128h67.584v182.272h4.096l52.224-172.032h37.888l52.224 172.032h4.096v-181.248h35.84v222.208h-62.464l-50.176-172.032-50.176 172.032h-62.464v-207.872l-51.2 207.872h-71.68l-54.272-221.184h35.84l15.36 46.080zM220.16 531.968h16.384l27.648-112.64h-70.656l26.624 112.64zM752.64 341.504h2.048l49.152 82.944 48.128-82.944h38.912l-65.536 108.544 65.536 112.64h-38.912l-48.128-87.040-48.128 87.040h-184.32v-221.184h181.248zM608.256 436.736h83.968v30.72h-83.968v62.464h125.952l48.128-82.944-46.080-74.752h-126.976v64.512z" />
<glyph unicode="&#xe906;" glyph-name="anchor" d="M894.976 385.536l-125.952 53.248c-10.24 4.096-22.528-1.024-26.624-11.264l-53.248-125.952c-5.12-13.312 1.024-27.648 13.312-33.792v0c13.312-5.12 27.648 1.024 33.792 13.312l27.648 66.56c10.24-28.672 16.384-59.392 16.384-91.136 0-139.264-107.52-253.952-243.712-267.264v658.432h182.272c14.336 0 25.6 11.264 25.6 25.6v0c0 14.336-11.264 25.6-25.6 25.6h-182.272v51.2c52.224 13.312 89.088 64.512 78.848 121.856-7.168 43.008-41.984 77.824-83.968 84.992-67.584 13.312-126.976-38.912-126.976-104.448 0-50.176 34.816-91.136 80.896-103.424v-51.2h-180.224c-14.336 0-25.6-11.264-25.6-25.6v0c0-14.336 11.264-25.6 25.6-25.6h179.2v-657.408c-135.168 13.312-240.64 128-240.64 266.24 0 31.744 5.12 61.44 15.36 91.136l27.648-66.56c5.12-13.312 20.48-19.456 33.792-13.312v0c13.312 5.12 19.456 20.48 13.312 33.792l-52.224 126.976c-4.096 10.24-16.384 15.36-26.624 11.264l-125.952-53.248c-13.312-5.12-19.456-20.48-13.312-33.792v0c5.12-13.312 20.48-19.456 33.792-13.312l62.464 26.624c-12.288-33.792-18.432-68.608-18.432-104.448-2.048-168.96 130.048-312.32 297.984-322.56 185.344-11.264 338.944 136.192 338.944 318.464 0 36.864-6.144 72.704-18.432 107.52l62.464-26.624c13.312-5.12 27.648 1.024 33.792 13.312v0c5.12 14.336-1.024 29.696-13.312 34.816zM455.68 852.48c0 30.72 24.576 55.296 55.296 55.296s55.296-24.576 55.296-55.296-24.576-55.296-55.296-55.296-55.296 25.6-55.296 55.296z" />
<glyph unicode="&#xe907;" glyph-name="android" d="M713.728 822.784v0c-8.192 8.192-16.384 15.36-26.624 23.552l14.336 29.696 1.024 2.048c8.192 21.504-2.048 45.056-23.552 53.248-10.24 4.096-20.48 4.096-30.72 0s-18.432-12.288-22.528-21.504l-11.264-23.552c-31.744 11.264-66.56 17.408-102.4 17.408-38.912 0-73.728-6.144-106.496-17.408l-10.24 22.528c-4.096 10.24-12.288 17.408-22.528 21.504-9.216 4.096-20.48 4.096-30.72 0-21.504-8.192-31.744-31.744-23.552-53.248l15.36-31.744c-63.488-49.152-90.112-117.76-94.208-165.888l1.024-493.568c0-14.336 11.264-25.6 25.6-25.6h35.84v-110.592c0-17.408 4.096-33.792 13.312-48.128 18.432-29.696 52.224-44.032 84.992-39.936 43.008 6.144 75.776 44.032 75.776 89.088v109.568h71.68v-110.592c0-44.032 32.768-82.944 75.776-89.088 4.096-1.024 8.192-1.024 11.264-1.024 20.48 0 40.96 7.168 57.344 21.504 18.432 16.384 29.696 39.936 29.696 65.536v113.664h35.84c14.336 0 25.6 11.264 25.6 25.6v495.616c-4.096 36.864-23.552 93.184-69.632 141.312zM290.816 676.352c4.096 43.008 32.768 102.4 90.112 139.264l18.432 12.288 6.144 3.072c31.744 15.36 67.584 22.528 107.52 22.528 37.888 0 72.704-7.168 103.424-22.528l14.336-7.168 9.216-6.144c13.312-9.216 26.624-19.456 35.84-29.696 35.84-37.888 52.224-81.92 55.296-109.568v-12.288h-442.368l2.048 10.24zM732.16 211.456h-35.84c-14.336 0-25.6-11.264-25.6-25.6v-139.264c0-10.24-4.096-19.456-12.288-26.624s-17.408-10.24-28.672-8.192c-17.408 2.048-30.72 19.456-30.72 37.888v136.192c0 14.336-11.264 25.6-25.6 25.6h-122.88c-14.336 0-25.6-11.264-25.6-25.6v-135.168c0-19.456-13.312-35.84-30.72-37.888-10.24-1.024-19.456 1.024-27.648 8.192-7.168 6.144-12.288 19.456-12.288 28.672v136.192c0 14.336-11.264 25.6-25.6 25.6h-35.84v394.24h440.32v-394.24zM128 656.896c-57.344 0-102.4-45.056-102.4-102.4v-215.040c0-57.344 45.056-102.4 102.4-102.4s102.4 45.056 102.4 102.4v215.040c0 57.344-45.056 102.4-102.4 102.4zM179.2 339.456c0-28.672-22.528-51.2-51.2-51.2s-51.2 22.528-51.2 51.2v215.040c0 28.672 22.528 51.2 51.2 51.2s51.2-22.528 51.2-51.2v-215.040zM896 656.896c-57.344 0-102.4-45.056-102.4-102.4v-215.040c0-57.344 45.056-102.4 102.4-102.4s102.4 45.056 102.4 102.4v215.040c0 57.344-45.056 102.4-102.4 102.4zM947.2 339.456c0-28.672-22.528-51.2-51.2-51.2s-51.2 22.528-51.2 51.2v215.040c0 28.672 22.528 51.2 51.2 51.2s51.2-22.528 51.2-51.2v-215.040zM452.608 772.608h-30.72c-5.12 0-10.24-4.096-10.24-10.24v-20.48c0-5.12 4.096-10.24 10.24-10.24h30.72c5.12 0 10.24 4.096 10.24 10.24v20.48c0 6.144-4.096 10.24-10.24 10.24zM595.968 772.608h-30.72c-5.12 0-10.24-4.096-10.24-10.24v-20.48c0-5.12 4.096-10.24 10.24-10.24h30.72c5.12 0 10.24 4.096 10.24 10.24v20.48c0 6.144-4.096 10.24-10.24 10.24z" />
<glyph unicode="&#xe908;" glyph-name="angle-double-down" d="M497.664 332.288c8.192-8.192 20.48-8.192 28.672 0l480.256 480.256c10.24 10.24 10.24 26.624 0 35.84s-26.624 10.24-35.84 0l-458.752-457.728-458.752 458.752c-10.24 10.24-26.624 10.24-35.84 0s-10.24-26.624 0-35.84l480.256-481.28zM970.752 562.688l-458.752-458.752-458.752 458.752c-10.24 10.24-26.624 10.24-35.84 0s-10.24-26.624 0-35.84l480.256-480.256c8.192-8.192 20.48-8.192 28.672 0l480.256 480.256c10.24 10.24 10.24 26.624 0 35.84s-25.6 9.216-35.84 0z" />
<glyph unicode="&#xe909;" glyph-name="angle-double-left" d="M395.264 462.336c-8.192-8.192-8.192-20.48 0-28.672l480.256-480.256c10.24-10.24 26.624-10.24 35.84 0s10.24 26.624 0 35.84l-457.728 458.752 458.752 458.752c10.24 10.24 10.24 26.624 0 35.84s-26.624 10.24-35.84 0l-481.28-480.256zM625.664-10.752l-458.752 458.752 458.752 458.752c10.24 10.24 10.24 26.624 0 35.84s-26.624 10.24-35.84 0l-480.256-480.256c-8.192-8.192-8.192-20.48 0-28.672l480.256-480.256c10.24-10.24 26.624-10.24 35.84 0 10.24 10.24 10.24 25.6 0 35.84z" />
<glyph unicode="&#xe90a;" glyph-name="angle-double-right" d="M628.736 434.688c8.192 8.192 8.192 20.48 0 28.672l-480.256 480.256c-10.24 10.24-26.624 10.24-35.84 0s-10.24-26.624 0-35.84l457.728-458.752-458.752-458.752c-10.24-10.24-10.24-26.624 0-35.84s26.624-10.24 35.84 0l481.28 480.256zM398.336 907.776l458.752-458.752-458.752-458.752c-10.24-10.24-10.24-26.624 0-35.84s26.624-10.24 35.84 0l480.256 480.256c8.192 8.192 8.192 20.48 0 28.672l-480.256 480.256c-10.24 10.24-26.624 10.24-35.84 0s-9.216-25.6 0-35.84z" />
<glyph unicode="&#xe90b;" glyph-name="angle-double-up" d="M526.336 565.76c-8.192 8.192-20.48 8.192-28.672 0l-480.256-480.256c-10.24-10.24-10.24-26.624 0-35.84s26.624-10.24 35.84 0l458.752 457.728 458.752-458.752c10.24-10.24 26.624-10.24 35.84 0s10.24 26.624 0 35.84l-480.256 481.28zM53.248 335.36l458.752 458.752 458.752-458.752c10.24-10.24 26.624-10.24 35.84 0s10.24 26.624 0 35.84l-480.256 480.256c-8.192 8.192-20.48 8.192-28.672 0l-480.256-480.256c-10.24-10.24-10.24-26.624 0-35.84 10.24-10.24 25.6-10.24 35.84 0z" />
<glyph unicode="&#xe90c;" glyph-name="apartment" d="M437.248 904.704v-86.016h-384c-14.336 0-25.6-11.264-25.6-25.6v-824.32c0-14.336 11.264-25.6 25.6-25.6h918.528c14.336 0 25.6 11.264 25.6 25.6v956.416c0 14.336-12.288 26.624-26.624 25.6l-508.928-20.48c-14.336 0-24.576-11.264-24.576-25.6zM232.448-5.632h-153.6v773.12h355.328v-149.504h-176.128c-14.336 0-25.6-11.264-25.6-25.6v-598.016zM492.544-5.632h-64.512v61.44h64.512v-61.44zM634.88-5.632h-91.136v84.992c0 14.336-11.264 25.6-25.6 25.6h-115.712c-14.336 0-25.6-11.264-25.6-25.6v-86.016h-93.184v573.44h351.232v-572.416zM945.152-5.632h-259.072v598.016c0 14.336-11.264 25.6-25.6 25.6h-172.032v262.144l456.704 18.432v-904.192zM145.408 671.232h30.72c6.144 0 10.24 4.096 10.24 10.24v30.72c0 6.144-4.096 10.24-10.24 10.24h-30.72c-6.144 0-10.24-4.096-10.24-10.24v-30.72c0-6.144 5.12-10.24 10.24-10.24zM324.608 671.232h30.72c6.144 0 10.24 4.096 10.24 10.24v30.72c0 6.144-4.096 10.24-10.24 10.24h-30.72c-6.144 0-10.24-4.096-10.24-10.24v-30.72c0-6.144 5.12-10.24 10.24-10.24zM595.968 833.024h-30.72c-6.144 0-10.24-4.096-10.24-10.24v-30.72c0-6.144 4.096-10.24 10.24-10.24h30.72c6.144 0 10.24 4.096 10.24 10.24v30.72c0 5.12-4.096 10.24-10.24 10.24zM752.64 833.024h-30.72c-6.144 0-10.24-4.096-10.24-10.24v-30.72c0-6.144 4.096-10.24 10.24-10.24h30.72c6.144 0 10.24 4.096 10.24 10.24v30.72c0 5.12-4.096 10.24-10.24 10.24zM887.808 833.024h-30.72c-6.144 0-10.24-4.096-10.24-10.24v-30.72c0-6.144 4.096-10.24 10.24-10.24h30.72c6.144 0 10.24 4.096 10.24 10.24v30.72c0 5.12-4.096 10.24-10.24 10.24zM595.968 689.664h-30.72c-6.144 0-10.24-4.096-10.24-10.24v-30.72c0-6.144 4.096-10.24 10.24-10.24h30.72c6.144 0 10.24 4.096 10.24 10.24v30.72c0 5.12-4.096 10.24-10.24 10.24zM752.64 689.664h-30.72c-6.144 0-10.24-4.096-10.24-10.24v-30.72c0-6.144 4.096-10.24 10.24-10.24h30.72c6.144 0 10.24 4.096 10.24 10.24v30.72c0 5.12-4.096 10.24-10.24 10.24zM887.808 689.664h-30.72c-6.144 0-10.24-4.096-10.24-10.24v-30.72c0-6.144 4.096-10.24 10.24-10.24h30.72c6.144 0 10.24 4.096 10.24 10.24v30.72c0 5.12-4.096 10.24-10.24 10.24zM752.64 563.712h-30.72c-6.144 0-10.24-4.096-10.24-10.24v-30.72c0-6.144 4.096-10.24 10.24-10.24h30.72c6.144 0 10.24 4.096 10.24 10.24v30.72c0 5.12-4.096 10.24-10.24 10.24zM887.808 563.712h-30.72c-6.144 0-10.24-4.096-10.24-10.24v-30.72c0-6.144 4.096-10.24 10.24-10.24h30.72c6.144 0 10.24 4.096 10.24 10.24v30.72c0 5.12-4.096 10.24-10.24 10.24zM752.64 451.072h-30.72c-6.144 0-10.24-4.096-10.24-10.24v-30.72c0-6.144 4.096-10.24 10.24-10.24h30.72c6.144 0 10.24 4.096 10.24 10.24v30.72c0 5.12-4.096 10.24-10.24 10.24zM887.808 451.072h-30.72c-6.144 0-10.24-4.096-10.24-10.24v-30.72c0-6.144 4.096-10.24 10.24-10.24h30.72c6.144 0 10.24 4.096 10.24 10.24v30.72c0 5.12-4.096 10.24-10.24 10.24zM752.64 328.192h-30.72c-6.144 0-10.24-4.096-10.24-10.24v-30.72c0-6.144 4.096-10.24 10.24-10.24h30.72c6.144 0 10.24 4.096 10.24 10.24v30.72c0 5.12-4.096 10.24-10.24 10.24zM887.808 328.192h-30.72c-6.144 0-10.24-4.096-10.24-10.24v-30.72c0-6.144 4.096-10.24 10.24-10.24h30.72c6.144 0 10.24 4.096 10.24 10.24v30.72c0 5.12-4.096 10.24-10.24 10.24zM752.64 205.312h-30.72c-6.144 0-10.24-4.096-10.24-10.24v-30.72c0-6.144 4.096-10.24 10.24-10.24h30.72c6.144 0 10.24 4.096 10.24 10.24v30.72c0 5.12-4.096 10.24-10.24 10.24zM887.808 205.312h-30.72c-6.144 0-10.24-4.096-10.24-10.24v-30.72c0-6.144 4.096-10.24 10.24-10.24h30.72c6.144 0 10.24 4.096 10.24 10.24v30.72c0 5.12-4.096 10.24-10.24 10.24zM752.64 82.432h-30.72c-6.144 0-10.24-4.096-10.24-10.24v-30.72c0-6.144 4.096-10.24 10.24-10.24h30.72c6.144 0 10.24 4.096 10.24 10.24v30.72c0 5.12-4.096 10.24-10.24 10.24zM887.808 82.432h-30.72c-6.144 0-10.24-4.096-10.24-10.24v-30.72c0-6.144 4.096-10.24 10.24-10.24h30.72c6.144 0 10.24 4.096 10.24 10.24v30.72c0 5.12-4.096 10.24-10.24 10.24zM145.408 550.4h30.72c6.144 0 10.24 4.096 10.24 10.24v30.72c0 6.144-4.096 10.24-10.24 10.24h-30.72c-6.144 0-10.24-4.096-10.24-10.24v-30.72c0-6.144 5.12-10.24 10.24-10.24zM145.408 429.568h30.72c6.144 0 10.24 4.096 10.24 10.24v30.72c0 6.144-4.096 10.24-10.24 10.24h-30.72c-6.144 0-10.24-4.096-10.24-10.24v-30.72c0-6.144 5.12-10.24 10.24-10.24zM145.408 308.736h30.72c6.144 0 10.24 4.096 10.24 10.24v30.72c0 6.144-4.096 10.24-10.24 10.24h-30.72c-6.144 0-10.24-4.096-10.24-10.24v-30.72c0-6.144 5.12-10.24 10.24-10.24zM145.408 187.904h30.72c6.144 0 10.24 4.096 10.24 10.24v30.72c0 6.144-4.096 10.24-10.24 10.24h-30.72c-6.144 0-10.24-4.096-10.24-10.24v-30.72c0-6.144 5.12-10.24 10.24-10.24zM145.408 67.072h30.72c6.144 0 10.24 4.096 10.24 10.24v30.72c0 6.144-4.096 10.24-10.24 10.24h-30.72c-6.144 0-10.24-4.096-10.24-10.24v-30.72c0-6.144 5.12-10.24 10.24-10.24zM387.072 515.584h-30.72c-6.144 0-10.24-4.096-10.24-10.24v-30.72c0-6.144 4.096-10.24 10.24-10.24h30.72c6.144 0 10.24 4.096 10.24 10.24v30.72c0 5.12-4.096 10.24-10.24 10.24zM564.224 515.584h-30.72c-6.144 0-10.24-4.096-10.24-10.24v-30.72c0-6.144 4.096-10.24 10.24-10.24h30.72c6.144 0 10.24 4.096 10.24 10.24v30.72c0 5.12-5.12 10.24-10.24 10.24zM387.072 372.224h-30.72c-6.144 0-10.24-4.096-10.24-10.24v-30.72c0-6.144 4.096-10.24 10.24-10.24h30.72c6.144 0 10.24 4.096 10.24 10.24v30.72c0 5.12-4.096 10.24-10.24 10.24zM564.224 372.224h-30.72c-6.144 0-10.24-4.096-10.24-10.24v-30.72c0-6.144 4.096-10.24 10.24-10.24h30.72c6.144 0 10.24 4.096 10.24 10.24v30.72c0 5.12-5.12 10.24-10.24 10.24zM387.072 228.864h-30.72c-6.144 0-10.24-4.096-10.24-10.24v-30.72c0-6.144 4.096-10.24 10.24-10.24h30.72c6.144 0 10.24 4.096 10.24 10.24v30.72c0 5.12-4.096 10.24-10.24 10.24zM564.224 228.864h-30.72c-6.144 0-10.24-4.096-10.24-10.24v-30.72c0-6.144 4.096-10.24 10.24-10.24h30.72c6.144 0 10.24 4.096 10.24 10.24v30.72c0 5.12-5.12 10.24-10.24 10.24z" />
<glyph unicode="&#xe90d;" glyph-name="apple" d="M497.664 637.44h2.048l10.24 1.024c17.408 2.048 104.448 14.336 164.864 77.824 44.032 47.104 65.536 108.544 61.44 184.32v9.216c0 10.24-4.096 20.48-12.288 26.624s-18.432 9.216-28.672 8.192l-8.192-1.024c-26.624-4.096-214.016-38.912-227.328-258.048v-10.24c0-21.504 17.408-37.888 37.888-37.888zM685.056 891.392c4.096-165.888-138.24-195.584-173.056-200.704 14.336 159.744 141.312 194.56 173.056 200.704zM869.376 217.6c-70.656 29.696-115.712 97.28-115.712 174.080 0 66.56 33.792 125.952 90.112 160.768l25.6 15.36-19.456 22.528c-30.72 36.864-68.608 61.44-111.616 72.704-68.608 16.384-145.408 0-229.376-50.176-31.744 20.48-148.48 87.040-240.64 26.624h-1.024c-17.408-9.216-206.848-119.808-108.544-429.056l1.024-2.048c3.072-7.168 72.704-168.96 152.576-229.376l4.096-3.072c37.888-30.72 87.040-29.696 131.072 0l1.024 1.024c7.168 3.072 43.008 17.408 82.944 17.408 17.408 0 44.032-3.072 66.56-19.456 20.48-14.336 48.128-24.576 74.752-24.576 23.552 0 46.080 8.192 65.536 27.648l1.024 1.024c10.24 8.192 26.624 23.552 52.224 54.272 26.624 31.744 64.512 83.968 90.112 149.504l9.216 23.552-21.504 11.264zM712.704 24.064h-1.024l-9.216-9.216c-26.624-27.648-70.656 0-74.752 3.072-26.624 18.432-59.392 28.672-95.232 28.672-57.344 0-106.496-22.528-106.496-23.552l-6.144-4.096c-25.6-18.432-49.152-19.456-69.632-3.072l-4.096 4.096c-66.56 48.128-131.072 193.536-137.216 207.872-89.088 279.552 79.872 364.544 80.896 365.568l6.144 3.072c68.608 46.080 174.080-18.432 186.368-26.624l25.6-17.408 24.576 14.336c71.68 43.008 139.264 59.392 193.536 46.080 24.576-6.144 46.080-18.432 65.536-34.816-56.32-45.056-89.088-112.64-89.088-186.368 0-88.064 48.128-167.936 123.904-209.92-38.912-83.968-96.256-141.312-113.664-157.696z" />
<glyph unicode="&#xe90e;" glyph-name="archive" d="M932.864 830.976h-827.392c-20.48 0-35.84-15.36-35.84-35.84v-115.712c0-20.48 15.36-35.84 35.84-35.84h20.48v-566.272c0-20.48 15.36-35.84 35.84-35.84h713.728c20.48 0 35.84 15.36 35.84 35.84v566.272h21.504c19.456 0 35.84 16.384 35.84 35.84v115.712c0 20.48-15.36 35.84-35.84 35.84zM860.16 92.672h-683.008v550.912h683.008v-550.912zM917.504 694.784h-796.672v84.992h796.672c0 0 0-84.992 0-84.992zM333.824 313.856h369.664c20.48 0 35.84 15.36 35.84 35.84v92.16c0 20.48-15.36 35.84-35.84 35.84h-369.664c-19.456 0-35.84-16.384-35.84-35.84v-92.16c0-20.48 15.36-35.84 35.84-35.84zM349.184 426.496h338.944v-61.44h-338.944v61.44z" />
<glyph unicode="&#xe90f;" glyph-name="arrow-down-circle" d="M545.792 196.096v518.144c0 14.336-11.264 25.6-25.6 25.6v0c-14.336 0-25.6-11.264-25.6-25.6v-518.144l-77.824 78.848c-10.24 10.24-26.624 10.24-35.84 0v0c-10.24-10.24-10.24-26.624 0-35.84l125.952-124.928c8.192-8.192 20.48-8.192 28.672 0l125.952 124.928c10.24 10.24 10.24 26.624 0 35.84v0c-10.24 10.24-26.624 10.24-35.84 0l-79.872-78.848zM520.192 890.368c-250.88 0-455.68-204.8-455.68-455.68s204.8-455.68 455.68-455.68 455.68 204.8 455.68 455.68-204.8 455.68-455.68 455.68zM520.192 30.208c-223.232 0-404.48 181.248-404.48 404.48s181.248 404.48 404.48 404.48 404.48-181.248 404.48-404.48-181.248-404.48-404.48-404.48z" />
<glyph unicode="&#xe910;" glyph-name="arrow-down" d="M615.424 162.304l-77.824-78.848v753.664c0 14.336-11.264 25.6-25.6 25.6v0c-14.336 0-25.6-11.264-25.6-25.6v-753.664l-77.824 78.848c-10.24 10.24-26.624 10.24-35.84 0v0c-10.24-10.24-10.24-26.624 0-35.84l125.952-124.928c8.192-8.192 20.48-8.192 28.672 0l125.952 124.928c10.24 10.24 10.24 26.624 0 35.84v0c-11.264 10.24-27.648 10.24-37.888 0z" />
<glyph unicode="&#xe911;" glyph-name="arrow-left-circle" d="M284.672 317.952c10.24 10.24 10.24 26.624 0 35.84l-78.848 77.824h661.504c14.336 0 25.6 11.264 25.6 25.6s-11.264 25.6-25.6 25.6h-661.504l78.848 77.824c10.24 10.24 10.24 26.624 0 35.84v0c-10.24 10.24-26.624 10.24-35.84 0l-132.096-133.12c-4.096-4.096-4.096-10.24 0-14.336l132.096-133.12c9.216-8.192 25.6-8.192 35.84 2.048v0zM501.76 958.976c-276.48 0-501.76-225.28-501.76-501.76s225.28-501.76 501.76-501.76 501.76 225.28 501.76 501.76-225.28 501.76-501.76 501.76zM501.76 5.632c-248.832 0-450.56 201.728-450.56 450.56s201.728 450.56 450.56 450.56 450.56-201.728 450.56-450.56-201.728-450.56-450.56-450.56z" />
<glyph unicode="&#xe912;" glyph-name="arrow-left" d="M916.48 488.96h-753.664l78.848 77.824c10.24 10.24 10.24 26.624 0 36.864v0c-10.24 10.24-26.624 10.24-36.864 0l-124.928-125.952c-8.192-8.192-8.192-20.48 0-28.672l124.928-125.952c10.24-10.24 26.624-10.24 36.864 0v0c10.24 10.24 10.24 26.624 0 36.864l-78.848 77.824h753.664c14.336 0 25.6 11.264 25.6 25.6v0c0 14.336-11.264 25.6-25.6 25.6z" />
<glyph unicode="&#xe913;" glyph-name="arrow-right-circle" d="M732.16 587.264c-10.24-10.24-10.24-26.624 0-35.84l78.848-77.824h-661.504c-14.336 0-25.6-11.264-25.6-25.6s11.264-25.6 25.6-25.6h661.504l-78.848-77.824c-10.24-10.24-10.24-26.624 0-35.84v0c10.24-10.24 26.624-10.24 35.84 0l132.096 133.12c4.096 4.096 4.096 10.24 0 14.336l-132.096 133.12c-9.216 8.192-25.6 8.192-35.84-2.048v0zM512 949.76c-276.48 0-501.76-225.28-501.76-501.76s225.28-501.76 501.76-501.76 501.76 225.28 501.76 501.76-225.28 501.76-501.76 501.76zM512-2.56c-248.832 0-450.56 201.728-450.56 450.56s201.728 450.56 450.56 450.56 450.56-201.728 450.56-450.56-201.728-450.56-450.56-450.56z" />
<glyph unicode="&#xe914;" glyph-name="arrow-right" d="M29.696 431.616h897.024l-78.848-77.824c-10.24-10.24-10.24-26.624 0-35.84v0c10.24-10.24 26.624-10.24 35.84 0l132.096 133.12c4.096 4.096 4.096 10.24 0 14.336l-132.096 133.12c-10.24 10.24-26.624 10.24-35.84 0v0c-10.24-10.24-10.24-26.624 0-35.84l78.848-77.824h-897.024c-14.336 0-25.6-11.264-25.6-25.6v0c0-16.384 11.264-27.648 25.6-27.648z" />
<glyph unicode="&#xe915;" glyph-name="arrow-top-left" d="M365.568 850.432h-234.496c-11.264 0-20.48-9.216-20.48-20.48v-234.496c0-14.336 11.264-25.6 25.6-25.6v0c14.336 0 25.6 11.264 25.6 25.6v167.936l702.464-703.488c10.24-10.24 26.624-10.24 36.864 0v0c10.24 10.24 10.24 26.624 0 36.864l-703.488 702.464h167.936c14.336 0 25.6 11.264 25.6 25.6v0c0 14.336-10.24 25.6-25.6 25.6z" />
<glyph unicode="&#xe916;" glyph-name="arrow-top-right" d="M638.976 824.832v0c0-14.336 11.264-25.6 25.6-25.6h167.936l-703.488-702.464c-10.24-10.24-10.24-26.624 0-36.864v0c10.24-10.24 26.624-10.24 36.864 0l702.464 703.488v-167.936c0-14.336 11.264-25.6 25.6-25.6v0c14.336 0 25.6 11.264 25.6 25.6v234.496c0 11.264-9.216 20.48-20.48 20.48h-234.496c-14.336 0-25.6-11.264-25.6-25.6z" />
<glyph unicode="&#xe917;" glyph-name="arrow-up-circle" d="M373.76 667.136c10.24-10.24 26.624-10.24 35.84 0l77.824 78.848v-661.504c0-14.336 11.264-25.6 25.6-25.6s25.6 11.264 25.6 25.6v661.504l77.824-78.848c10.24-10.24 26.624-10.24 35.84 0v0c10.24 10.24 10.24 26.624 0 35.84l-133.12 132.096c-4.096 4.096-10.24 4.096-14.336 0l-133.12-132.096c-8.192-9.216-8.192-25.6 2.048-35.84v0zM512 949.76c-276.48 0-501.76-225.28-501.76-501.76s225.28-501.76 501.76-501.76 501.76 225.28 501.76 501.76-225.28 501.76-501.76 501.76zM512-2.56c-248.832 0-450.56 201.728-450.56 450.56s201.728 450.56 450.56 450.56 450.56-201.728 450.56-450.56-201.728-450.56-450.56-450.56z" />
<glyph unicode="&#xe918;" glyph-name="arrow-up" d="M528.384-34.304v897.024l77.824-78.848c10.24-10.24 26.624-10.24 35.84 0v0c10.24 10.24 10.24 26.624 0 35.84l-133.12 132.096c-4.096 4.096-10.24 4.096-14.336 0l-133.12-132.096c-10.24-10.24-10.24-26.624 0-35.84v0c10.24-10.24 26.624-10.24 35.84 0l77.824 78.848v-897.024c0-14.336 11.264-25.6 25.6-25.6v0c16.384 0 27.648 11.264 27.648 25.6z" />
<glyph unicode="&#xe919;" glyph-name="arrows-horizontal" d="M1015.808 455.168l-132.096 133.12c-10.24 10.24-26.624 10.24-35.84 0-10.24-10.24-10.24-26.624 0-35.84l78.848-77.824h-830.464l78.848 77.824c10.24 9.216 10.24 25.6 0 35.84-9.216 10.24-25.6 10.24-35.84 0l-132.096-133.12c-4.096-4.096-4.096-10.24 0-14.336l132.096-133.12c9.216-10.24 25.6-10.24 35.84 0 10.24 9.216 10.24 25.6 0 35.84l-78.848 77.824h830.464l-78.848-77.824c-10.24-10.24-10.24-26.624 0-35.84 10.24-10.24 26.624-10.24 35.84 0l132.096 133.12c4.096 4.096 4.096 10.24 0 14.336z" />
<glyph unicode="&#xe91a;" glyph-name="arrows-vertical" d="M519.168-55.808l133.12 132.096c10.24 10.24 10.24 26.624 0 35.84-10.24 10.24-26.624 10.24-35.84 0l-77.824-78.848v830.464l77.824-78.848c9.216-10.24 25.6-10.24 35.84 0 10.24 9.216 10.24 25.6 0 35.84l-133.12 132.096c-4.096 4.096-10.24 4.096-14.336 0l-133.12-132.096c-10.24-9.216-10.24-25.6 0-35.84 9.216-10.24 25.6-10.24 35.84 0l77.824 78.848v-830.464l-77.824 78.848c-10.24 10.24-26.624 10.24-35.84 0-10.24-10.24-10.24-26.624 0-35.84l133.12-132.096c4.096-4.096 10.24-4.096 14.336 0z" />
<glyph unicode="&#xe91b;" glyph-name="ban" d="M870.4 806.4c-95.232 95.232-222.208 148.48-355.328 148.48-1.024 0-2.048 0-3.072 0-136.192-1.024-263.168-53.248-358.4-148.48s-148.48-223.232-148.48-358.4c0-136.192 52.224-264.192 147.456-359.424s223.232-148.48 358.4-148.48c136.192 0 264.192 52.224 359.424 148.48 96.256 96.256 148.48 223.232 147.456 359.424 2.048 135.168-51.2 262.144-147.456 358.4zM57.344 448c0 121.856 47.104 235.52 133.12 321.536 84.992 84.992 199.68 132.096 322.56 133.12 1.024 0 2.048 0 3.072 0 111.616 0 217.088-40.96 300.032-115.712l-644.096-643.072c-74.752 83.968-114.688 190.464-114.688 304.128zM834.56 125.44c-86.016-86.016-200.704-133.12-323.584-133.12-112.64 0-220.16 40.96-303.104 115.712l644.096 644.096c75.776-83.968 116.736-190.464 115.712-303.104v0c0-122.88-46.080-237.568-133.12-323.584z" />
<glyph unicode="&#xe91c;" glyph-name="bar-chart" d="M962.56-12.8v575.488c0 14.336-11.264 25.6-25.6 25.6h-165.888c-14.336 0-25.6-11.264-25.6-25.6v-575.488h-90.112v677.888c0 14.336-11.264 25.6-25.6 25.6h-165.888c-14.336 0-25.6-11.264-25.6-25.6v-677.888h-90.112v780.288c0 14.336-11.264 25.6-25.6 25.6h-165.888c-14.336 0-25.6-11.264-25.6-25.6v-780.288h-71.68v947.2c0 14.336-12.288 25.6-25.6 25.6v0c-14.336 0-25.6-11.264-25.6-25.6v-998.4h980.992c14.336 0 25.6 11.264 25.6 25.6v0c0 14.336-11.264 25.6-25.6 25.6h-26.624zM182.272-12.8v744.448c0 6.144 4.096 10.24 10.24 10.24h94.208c6.144 0 10.24-4.096 10.24-10.24v-744.448h-114.688zM489.472-12.8v642.048c0 6.144 4.096 10.24 10.24 10.24h94.208c6.144 0 10.24-4.096 10.24-10.24v-642.048h-114.688zM796.672-12.8v539.648c0 6.144 4.096 10.24 10.24 10.24h94.208c6.144 0 10.24-4.096 10.24-10.24v-539.648h-114.688z" />
<glyph unicode="&#xe91d;" glyph-name="basketball" d="M940.032 727.552c-9.216 14.336-19.456 27.648-29.696 40.96-30.72 37.888-66.56 71.68-106.496 99.328-14.336 9.216-28.672 18.432-43.008 26.624-72.704 40.96-157.696 63.488-246.784 63.488s-174.080-22.528-246.784-63.488c-15.36-8.192-29.696-17.408-43.008-26.624-40.96-28.672-77.824-63.488-109.568-102.4-10.24-13.312-20.48-27.648-29.696-41.984-51.2-79.872-80.896-174.080-80.896-275.456 0-98.304 27.648-189.44 75.776-267.264 9.216-14.336 18.432-28.672 28.672-41.984 32.768-41.984 71.68-79.872 115.712-109.568 14.336-9.216 28.672-18.432 43.008-26.624 72.704-40.96 157.696-63.488 246.784-63.488s173.056 23.552 246.784 63.488c15.36 8.192 29.696 17.408 43.008 26.624 43.008 29.696 79.872 65.536 112.64 106.496 10.24 13.312 20.48 27.648 29.696 41.984 50.176 78.848 78.848 172.032 78.848 271.36-1.024 102.4-31.744 197.632-84.992 278.528zM894.976 704c45.056-66.56 72.704-145.408 76.8-230.4h-279.552c2.048 57.344 9.216 112.64 21.504 165.888 63.488 15.36 123.904 36.864 181.248 64.512zM779.264 822.784c30.72-22.528 59.392-48.128 83.968-76.8-43.008-20.48-88.064-36.864-135.168-49.152 14.336 43.008 31.744 84.992 51.2 125.952zM514.048 907.776c80.896 0 156.672-20.48 222.208-57.344-26.624-53.248-48.128-108.544-64.512-166.912-53.248-10.24-107.52-16.384-163.84-16.384-52.224 0-103.424 5.12-152.576 14.336-16.384 59.392-37.888 115.712-64.512 168.96 66.56 35.84 142.336 57.344 223.232 57.344zM641.024 473.6h-254.976c-1.024 52.224-7.168 103.424-17.408 153.6 46.080-7.168 92.16-11.264 140.288-11.264 51.2 0 101.376 4.096 150.528 12.288-10.24-50.176-16.384-101.376-18.432-154.624zM657.408 278.016c-48.128 8.192-98.304 12.288-148.48 12.288-47.104 0-93.184-4.096-138.24-10.24 9.216 46.080 14.336 94.208 15.36 143.36h254.976c1.024-50.176 7.168-98.304 16.384-145.408zM247.808 822.784c20.48-40.96 37.888-84.992 51.2-129.024-48.128 12.288-94.208 28.672-138.24 49.152 25.6 29.696 54.272 56.32 87.040 79.872zM130.048 699.904c58.368-27.648 119.808-48.128 184.32-62.464 12.288-53.248 19.456-107.52 20.48-163.84h-279.552c4.096 82.944 30.72 160.768 74.752 226.304zM124.928 203.264c-39.936 64.512-65.536 138.24-69.632 219.136h280.576c-2.048-52.224-8.192-103.424-18.432-152.576-67.584-15.36-132.096-36.864-192.512-66.56zM247.808 73.216c-34.816 24.576-66.56 54.272-93.184 88.064 47.104 21.504 96.256 39.936 147.456 52.224-13.312-48.128-31.744-95.232-54.272-140.288zM514.048-11.776c-80.896 0-156.672 20.48-222.208 57.344 28.672 56.32 51.2 116.736 67.584 180.224 49.152 9.216 98.304 13.312 149.504 13.312 55.296 0 108.544-5.12 160.768-15.36 16.384-62.464 38.912-121.856 66.56-178.176-65.536-35.84-142.336-57.344-222.208-57.344zM779.264 73.216c-21.504 44.032-39.936 90.112-54.272 137.216 50.176-13.312 98.304-30.72 144.384-53.248-25.6-30.72-56.32-59.392-90.112-83.968zM900.096 200.192c-59.392 28.672-122.88 52.224-188.416 67.584-11.264 50.176-17.408 102.4-19.456 155.648h280.576c-5.12-82.944-30.72-158.72-72.704-223.232z" />
<glyph unicode="&#xe91e;" glyph-name="behance" d="M455.68 486.912c13.312 9.216 22.528 20.48 30.72 32.768 16.384 22.528 22.528 51.2 22.528 83.968 0 30.72-5.12 56.32-14.336 77.824-11.264 20.48-25.6 38.912-45.056 51.2-19.456 13.312-39.936 20.48-66.56 27.648-24.576 5.12-50.176 8.192-80.896 8.192h-275.456c-9.216 0-16.384-6.144-16.384-16.384v-588.8c0-9.216 6.144-16.384 16.384-16.384h285.696c27.648 0 55.296 3.072 80.896 9.216 27.648 6.144 51.2 17.408 72.704 33.792 22.528 16.384 38.912 35.84 51.2 59.392 13.312 24.576 19.456 53.248 19.456 86.016 0 39.936-9.216 75.776-28.672 104.448-13.312 21.504-31.744 35.84-52.224 47.104zM481.28 270.848c-9.216-17.408-22.528-33.792-39.936-45.056s-36.864-20.48-59.392-27.648v0c-22.528-6.144-47.104-9.216-70.656-9.216h-260.096v539.648h252.928c25.6 0 50.176-2.048 70.656-6.144 19.456-5.12 36.864-11.264 51.2-20.48 13.312-9.216 24.576-20.48 30.72-36.864 8.192-16.384 11.264-35.84 11.264-59.392 0-24.576-5.12-45.056-16.384-61.44s-28.672-30.72-51.2-39.936l-48.128-22.528 51.2-14.336c30.72-9.216 53.248-24.576 69.632-47.104 14.336-22.528 22.528-48.128 22.528-81.92 0-27.648-4.096-50.176-14.336-67.584zM355.328 514.56c19.456 14.336 30.72 36.864 30.72 69.632 0 17.408-3.072 30.72-9.216 44.032-6.144 11.264-16.384 20.48-27.648 27.648-11.264 6.144-22.528 11.264-35.84 13.312-11.264 2.048-22.528 3.072-36.864 3.072h-140.288v-176.128h150.528c28.672-3.072 51.2 5.12 68.608 18.432zM178.176 628.224h100.352c11.264 0 20.48-2.048 28.672-3.072 8.192-2.048 14.336-3.072 20.48-8.192 5.12-3.072 9.216-6.144 11.264-13.312 3.072-5.12 5.12-13.312 5.12-24.576 0-25.6-9.216-33.792-13.312-36.864-11.264-8.192-25.6-13.312-44.032-13.312h-109.568c1.024 1.024 1.024 99.328 1.024 99.328zM376.832 423.424v0c-20.48 16.384-47.104 22.528-78.848 22.528h-159.744v-199.68h20.48c164.864 2.048 173.056 3.072 176.128 3.072 14.336 3.072 27.648 8.192 36.864 14.336 11.264 8.192 20.48 17.408 27.648 30.72 6.144 13.312 9.216 28.672 9.216 47.104 0 38.912-11.264 64.512-31.744 81.92zM363.52 315.904c-3.072-6.144-8.192-11.264-14.336-16.384s-13.312-6.144-22.528-9.216c-6.144 0-48.128-2.048-148.48-3.072v118.784h119.808c22.528 0 41.984-5.12 55.296-14.336 11.264-9.216 17.408-24.576 17.408-48.128-2.048-11.264-4.096-21.504-7.168-27.648zM862.208 503.296c-17.408 19.456-47.104 30.72-80.896 30.72-22.528 0-39.936-3.072-55.296-11.264-14.336-8.192-25.6-17.408-35.84-28.672-9.216-11.264-16.384-24.576-19.456-36.864-3.072-11.264-5.12-22.528-6.144-32.768l-2.048-20.48h230.4l-2.048 22.528c0 29.696-11.264 57.344-28.672 76.8zM710.656 442.88v2.048c2.048 8.192 6.144 16.384 11.264 22.528 6.144 6.144 13.312 13.312 22.528 17.408 9.216 5.12 20.48 6.144 36.864 6.144 22.528 0 39.936-6.144 50.176-16.384 8.192-8.192 14.336-19.456 17.408-32.768h-138.24zM1001.472 450.048c-8.192 32.768-22.528 61.44-39.936 87.040-19.456 25.6-44.032 47.104-72.704 61.44s-64.512 22.528-103.424 22.528c-33.792 0-66.56-6.144-95.232-19.456s-53.248-28.672-73.728-51.2c-20.48-20.48-36.864-47.104-48.128-77.824-11.264-28.672-16.384-61.44-16.384-95.232 0-35.84 5.12-67.584 16.384-97.28 11.264-28.672 27.648-55.296 47.104-77.824v0c20.48-22.528 45.056-38.912 73.728-50.176s61.44-17.408 97.28-17.408c51.2 0 97.28 13.312 132.096 35.84 36.864 24.576 66.56 64.512 83.968 119.808l2.048 5.12c3.072 11.264-5.12 22.528-16.384 22.528h-122.88l-5.12-15.36c-3.072-8.192-11.264-17.408-22.528-25.6-13.312-9.216-28.672-14.336-48.128-14.336-27.648 0-47.104 6.144-61.44 19.456-9.216 9.216-17.408 27.648-20.48 47.104h300.032l2.048 19.456c3.072 34.816-1.024 68.608-8.192 101.376zM665.6 370.176v-20.48c0-38.912 13.312-75.776 33.792-95.232 20.48-20.48 51.2-30.72 89.088-30.72 27.648 0 51.2 6.144 72.704 20.48 14.336 9.216 25.6 20.48 32.768 33.792h58.368c-14.336-32.768-32.768-56.32-56.32-70.656-30.72-19.456-67.584-28.672-111.616-28.672-30.72 0-58.368 5.12-81.92 14.336-24.576 9.216-44.032 22.528-61.44 39.936-16.384 17.408-28.672 38.912-38.912 62.464-9.216 24.576-14.336 53.248-14.336 81.92s5.12 56.32 14.336 80.896c9.216 25.6 22.528 47.104 39.936 62.464 17.408 17.408 38.912 32.768 61.44 41.984 24.576 9.216 50.176 16.384 78.848 16.384 32.768 0 61.44-6.144 83.968-17.408 24.576-13.312 44.032-28.672 58.368-50.176 14.336-20.48 25.6-45.056 33.792-72.704 5.12-20.48 8.192-45.056 8.192-67.584h-301.056v-1.024zM658.432 632.32h243.712c9.216 0 16.384 6.144 16.384 16.384v64.512c0 9.216-6.144 16.384-16.384 16.384h-243.712c-9.216 0-16.384-6.144-16.384-16.384v-64.512c1.024-8.192 7.168-16.384 16.384-16.384zM683.008 689.664h195.584v-16.384h-195.584v16.384z" />
<glyph unicode="&#xe91f;" glyph-name="bi-cycle" d="M684.032 676.352c54.272 0 98.304 44.032 98.304 98.304s-44.032 98.304-98.304 98.304c-54.272 0-98.304-44.032-98.304-98.304s44.032-98.304 98.304-98.304zM684.032 821.76c26.624 0 47.104-21.504 47.104-47.104s-21.504-47.104-47.104-47.104-47.104 21.504-47.104 47.104 21.504 47.104 47.104 47.104zM219.136 512.512c-113.664 0-204.8-92.16-204.8-204.8s92.16-204.8 204.8-204.8c113.664 0 204.8 92.16 204.8 204.8s-92.16 204.8-204.8 204.8zM219.136 153.088c-84.992 0-153.6 69.632-153.6 153.6 0 84.992 69.632 153.6 153.6 153.6s153.6-69.632 153.6-153.6c0-84.992-68.608-153.6-153.6-153.6zM806.912 512.512c-113.664 0-205.824-92.16-205.824-205.824s92.16-204.8 205.824-204.8c113.664 0 204.8 92.16 204.8 204.8s-91.136 205.824-204.8 205.824zM806.912 153.088c-84.992 0-154.624 69.632-154.624 153.6s69.632 154.624 154.624 154.624 153.6-69.632 153.6-154.624-68.608-153.6-153.6-153.6zM649.216 517.632c8.192-11.264 24.576-13.312 35.84-5.12v0c11.264 8.192 13.312 24.576 5.12 35.84l-109.568 145.408c-9.216 12.288-26.624 13.312-36.864 4.096l-162.816-144.384c-11.264-9.216-11.264-26.624-1.024-36.864l96.256-100.352v-101.376c0-14.336 11.264-25.6 25.6-25.6v0c14.336 0 25.6 11.264 25.6 25.6v121.856l-92.16 96.256 121.856 108.544 92.16-123.904z" />
<glyph unicode="&#xe920;" glyph-name="bitbucket" d="M508.928 546.304v0c-22.528 0-43.008-8.192-59.392-24.576-15.36-15.36-23.552-34.816-23.552-57.344 0-45.056 37.888-80.896 81.92-80.896v0c22.528 0 43.008 8.192 58.368 24.576 15.36 15.36 23.552 34.816 23.552 57.344 2.048 45.056-34.816 80.896-80.896 80.896zM547.84 428.544c-10.24-10.24-23.552-16.384-38.912-16.384v0c-29.696 0-54.272 23.552-54.272 53.248 0 14.336 6.144 26.624 15.36 36.864 10.24 10.24 24.576 16.384 38.912 16.384 29.696 0 54.272-23.552 54.272-53.248 0-13.312-6.144-26.624-15.36-36.864zM828.416 264.704v0c-9.216 1.024-18.432 0-28.672-7.168l-3.072-2.048c-5.12-3.072-10.24-7.168-15.36-10.24-30.72-18.432-64.512-32.768-104.448-45.056-41.984-13.312-88.064-19.456-135.168-22.528-25.6-1.024-50.176-1.024-74.752 0-23.552 1.024-48.128 5.12-70.656 8.192-40.96 7.168-78.848 18.432-113.664 33.792-26.624 11.264-48.128 23.552-66.56 36.864-3.072 2.048-7.168 5.12-10.24 6.144-9.216 3.072-19.456 2.048-28.672-2.048-8.192-5.12-14.336-13.312-15.36-22.528-1.024-5.12-1.024-10.24 0-15.36 5.12-25.6 9.216-50.176 14.336-76.8 3.072-19.456 8.192-38.912 11.264-58.368l5.12-21.504c2.048-10.24 7.168-21.504 13.312-30.72s14.336-18.432 24.576-26.624c14.336-11.264 31.744-22.528 53.248-31.744 31.744-14.336 66.56-24.576 108.544-31.744 28.672-5.12 56.32-8.192 82.944-8.192l67.584-1.024c22.528 1.024 46.080 3.072 69.632 6.144 30.72 5.12 58.368 10.24 84.992 18.432s49.152 18.432 69.632 30.72c14.336 8.192 25.6 17.408 34.816 28.672 13.312 14.336 21.504 29.696 24.576 46.080l15.36 77.824c5.12 25.6 10.24 51.2 15.36 77.824 1.024 5.12 1.024 9.216 0 14.336-3.072 14.336-13.312 25.6-28.672 28.672zM804.864 151.040l-15.36-77.824c-2.048-9.216-7.168-18.432-15.36-26.624-6.144-8.192-16.384-15.36-27.648-22.528-17.408-10.24-37.888-18.432-61.44-26.624-24.576-7.168-50.176-13.312-78.848-17.408-22.528-3.072-43.008-5.12-65.536-6.144-1.024 0-2.048 0-3.072 0h-55.296c-1.024 0-2.048 0-5.12 0-26.624 1.024-54.272 3.072-80.896 8.192-38.912 7.168-71.68 16.384-99.328 28.672-17.408 8.192-32.768 16.384-45.056 25.6-7.168 6.144-13.312 11.264-17.408 18.432-3.072 6.144-6.144 11.264-7.168 17.408l-2.048 23.552c-3.072 19.456-8.192 38.912-11.264 58.368-5.12 23.552-9.216 47.104-13.312 70.656 19.456-13.312 40.96-25.6 69.632-37.888 37.888-16.384 78.848-28.672 121.856-36.864 24.576-5.12 49.152-7.168 74.752-9.216 25.6-1.024 53.248-2.048 79.872 0 49.152 2.048 97.28 10.24 143.36 23.552 41.984 13.312 79.872 28.672 112.64 48.128 6.144 3.072 11.264 7.168 17.408 11.264v0c-6.144-23.552-10.24-48.128-15.36-72.704zM793.6 840.192c-6.144 5.12-11.264 8.192-17.408 10.24-10.24 6.144-21.504 9.216-31.744 11.264-19.456 6.144-40.96 10.24-68.608 14.336-26.624 5.12-56.32 7.168-88.064 9.216-14.336 2.048-29.696 2.048-45.056 3.072-41.984 1.024-86.016 0-130.048-2.048-29.696-2.048-55.296-5.12-79.872-9.216-25.6-5.12-46.080-8.192-63.488-14.336-11.264-3.072-21.504-7.168-29.696-11.264-5.12-2.048-11.264-7.168-17.408-13.312-14.336-15.36-14.336-33.792 0-48.128 5.12-5.12 9.216-8.192 14.336-10.24 7.168-3.072 14.336-7.168 21.504-9.216 23.552-9.216 48.128-14.336 69.632-17.408 34.816-6.144 72.704-10.24 114.688-13.312 16.384-1.024 31.744-1.024 48.128-1.024h22.528l19.456 1.024c14.336 0 26.624 1.024 40.96 1.024 26.624 1.024 56.32 3.072 86.016 7.168 26.624 3.072 50.176 7.168 71.68 13.312 11.264 3.072 28.672 7.168 45.056 15.36 5.12 2.048 13.312 6.144 19.456 13.312 11.264 10.24 14.336 21.504 14.336 28.672-2.048 2.048-6.144 12.288-16.384 21.504zM757.76 806.4c-13.312-6.144-26.624-9.216-37.888-13.312-19.456-5.12-40.96-8.192-66.56-11.264-28.672-3.072-56.32-6.144-81.92-7.168-14.336 0-26.624-1.024-40.96-1.024l-18.432-1.024-21.504 1.024c-15.36 0-31.744 1.024-47.104 1.024-40.96 2.048-77.824 6.144-111.616 11.264-19.456 3.072-40.96 8.192-62.464 16.384-5.12 2.048-10.24 5.12-16.384 8.192-1.024 1.024-2.048 1.024-3.072 2.048 1.024 1.024 3.072 2.048 7.168 5.12 6.144 3.072 14.336 6.144 23.552 9.216 16.384 5.12 33.792 9.216 58.368 13.312 23.552 3.072 49.152 7.168 76.8 9.216 43.008 3.072 86.016 3.072 128 2.048 14.336 0 28.672-1.024 43.008-2.048 30.72-2.048 58.368-5.12 84.992-8.192 25.6-3.072 46.080-8.192 63.488-14.336 8.192-2.048 16.384-5.12 24.576-9.216 3.072-1.024 7.168-3.072 10.24-6.144-5.12-2.048-7.168-3.072-12.288-5.12zM508.928 620.032c-41.984 0-81.92-16.384-112.64-46.080-29.696-29.696-45.056-66.56-45.056-108.544 0-84.992 70.656-153.6 157.696-153.6v0c41.984 0 80.896 16.384 111.616 45.056 29.696 29.696 46.080 68.608 46.080 109.568 0 83.968-70.656 153.6-157.696 153.6zM594.944 382.464c-22.528-22.528-53.248-33.792-84.992-34.816v0c-66.56 0-119.808 53.248-120.832 116.736 0 30.72 11.264 59.392 33.792 81.92 22.528 23.552 53.248 34.816 86.016 34.816 65.536 0 119.808-53.248 119.808-117.76 0-29.696-11.264-58.368-33.792-80.896zM962.56 813.568c0 2.048-1.024 5.12-2.048 7.168-3.072 13.312-11.264 23.552-22.528 34.816-12.288 12.288-25.6 22.528-46.080 32.768-19.456 10.24-40.96 19.456-68.608 28.672-31.744 10.24-65.536 18.432-102.4 24.576-21.504 3.072-40.96 7.168-61.44 9.216-16.384 2.048-34.816 3.072-53.248 5.12-16.384 1.024-32.768 1.024-48.128 2.048l-21.504 1.024h-56.32l-34.816-2.048c-15.36-1.024-29.696-1.024-45.056-2.048-22.528-1.024-47.104-3.072-73.728-8.192-59.392-8.192-109.568-19.456-152.576-36.864-26.624-9.216-48.128-19.456-66.56-31.744-13.312-8.192-24.576-17.408-32.768-26.624-11.264-13.312-18.432-25.6-21.504-39.936l-2.048-5.12v-11.264l7.168-45.056c3.072-24.576 7.168-48.128 11.264-72.704 5.12-30.72 10.24-59.392 15.36-89.088l39.936-225.28c1.024-9.216 5.12-18.432 10.24-26.624 7.168-10.24 15.36-19.456 26.624-29.696 16.384-13.312 34.816-24.576 58.368-36.864 28.672-13.312 59.392-24.576 96.256-32.768 28.672-7.168 57.344-11.264 90.112-16.384 31.744-3.072 64.512-6.144 97.28-6.144 9.216 0 19.456 0 29.696 0 55.296 2.048 105.472 8.192 154.624 19.456 41.984 10.24 78.848 23.552 111.616 39.936 18.432 9.216 34.816 19.456 48.128 31.744 8.192 7.168 15.36 14.336 21.504 21.504 8.192 10.24 14.336 23.552 16.384 37.888 3.072 18.432 6.144 37.888 9.216 55.296l30.72 176.128c3.072 23.552 8.192 47.104 11.264 70.656 3.072 22.528 7.168 43.008 10.24 65.536 2.048 11.264 3.072 22.528 5.12 33.792l2.048 13.312 1.024 25.6 7.168 8.192zM923.648 773.632c-1.024-11.264-3.072-22.528-5.12-33.792-3.072-21.504-7.168-43.008-10.24-64.512-3.072-23.552-8.192-47.104-11.264-70.656l-30.72-176.128c-3.072-18.432-7.168-37.888-9.216-56.32-1.024-8.192-5.12-14.336-9.216-19.456s-9.216-10.24-15.36-15.36c-11.264-9.216-25.6-18.432-41.984-26.624-29.696-16.384-64.512-28.672-104.448-37.888-47.104-11.264-95.232-17.408-148.48-18.432-41.984-1.024-82.944 0-121.856 5.12-30.72 3.072-58.368 8.192-86.016 15.36-33.792 8.192-63.488 18.432-89.088 30.72-21.504 9.216-37.888 19.456-51.2 31.744-9.216 7.168-15.36 14.336-19.456 21.504-2.048 5.12-5.12 8.192-5.12 13.312l-39.936 225.28c-5.12 29.696-10.24 59.392-15.36 89.088-3.072 24.576-8.192 48.128-11.264 71.68l-6.144 37.888c0 1.024 0 2.048-1.024 5.12v1.024c0 1.024 1.024 2.048 1.024 3.072 1.024 7.168 6.144 15.36 13.312 23.552 7.168 7.168 14.336 14.336 25.6 21.504 16.384 10.24 34.816 19.456 59.392 28.672 41.984 15.36 88.064 25.6 145.408 33.792 25.6 3.072 49.152 6.144 70.656 8.192 14.336 1.024 29.696 1.024 43.008 2.048l19.456 1.024 63.488 1.024c1.024 0 2.048 0 3.072 0l21.504-1.024c16.384-1.024 31.744-1.024 48.128-2.048 19.456-3.072 35.84-4.096 52.224-6.144 18.432-3.072 39.936-6.144 59.392-10.24 33.792-6.144 65.536-13.312 96.256-23.552 24.576-8.192 45.056-16.384 62.464-25.6 16.384-8.192 28.672-16.384 36.864-25.6 7.168-7.168 11.264-14.336 14.336-21.504 0-1.024 1.024-2.048 1.024-3.072v-13.312l-4.096-19.456z" />
<glyph unicode="&#xe921;" glyph-name="bitcoin" d="M770.048 449.024c66.56 46.080 107.52 123.904 104.448 205.824-4.096 125.952-113.664 228.352-243.712 228.352h-68.608v35.84c0 15.36-12.288 27.648-27.648 27.648-13.312-1.024-23.552-12.288-23.552-25.6v-36.864h-74.752v34.816c0 15.36-12.288 27.648-27.648 27.648-13.312-1.024-23.552-12.288-23.552-25.6v-36.864h-112.64c0 0 0 0-1.024 0h-97.28c-13.312 0-24.576-11.264-24.576-24.576v-2.048c0-13.312 11.264-24.576 24.576-24.576h60.416v-768h-60.416c-13.312 0-24.576-11.264-24.576-24.576v0c0-13.312 11.264-24.576 24.576-24.576h210.944v-38.912c0-15.36 12.288-27.648 27.648-27.648 13.312 1.024 23.552 12.288 23.552 25.6v38.912h74.752v-36.864c0-15.36 12.288-27.648 27.648-27.648 13.312 1.024 23.552 12.288 23.552 25.6v38.912h68.608c130.048 0 238.592 102.4 242.688 228.352 4.096 83.968-36.864 161.792-103.424 206.848zM284.672 832h347.136c102.4 0 188.416-79.872 191.488-179.2 3.072-76.8-43.008-149.504-115.712-179.2h-422.912v358.4zM823.296 244.224c-3.072-98.304-89.088-179.2-191.488-179.2h-346.112v357.376h428.032c68.608-30.72 112.64-101.376 109.568-178.176z" />
<glyph unicode="&#xe922;" glyph-name="blackboard" d="M989.184 873.984h-452.608v49.152c0 14.336-11.264 25.6-25.6 25.6v0c-14.336 0-25.6-11.264-25.6-25.6v-49.152h-453.632c-14.336 0-25.6-11.264-25.6-25.6v-491.52c0-14.336 11.264-25.6 25.6-25.6h330.752l-169.984-331.776c-6.144-12.288-1.024-27.648 11.264-34.816v0c12.288-6.144 27.648-1.024 34.816 11.264l181.248 355.328h65.536v-358.4c0-14.336 11.264-25.6 25.6-25.6v0c14.336 0 25.6 11.264 25.6 25.6v358.4h65.536l181.248-354.304c6.144-12.288 21.504-17.408 34.816-11.264v0c12.288 6.144 17.408 21.504 11.264 34.816l-169.984 330.752h330.752c14.336 0 25.6 11.264 25.6 25.6v491.52c-1.024 14.336-12.288 25.6-26.624 25.6zM963.584 382.464h-906.24v440.32h906.24v-440.32z" />
<glyph unicode="&#xe923;" glyph-name="bluetooth" d="M884.736 700.928l-398.336 230.4c-17.408 10.24-38.912-2.048-38.912-22.528v-419.84l-359.424 202.752c-12.288 7.168-27.648 3.072-34.816-9.216v0c-7.168-12.288-3.072-27.648 9.216-34.816l354.304-199.68-343.040-194.56c-12.288-7.168-16.384-22.528-10.24-34.816v0c7.168-12.288 22.528-16.384 34.816-10.24l350.208 195.584v-420.864c0-19.456 21.504-31.744 38.912-22.528l398.336 230.4c17.408 10.24 17.408 34.816 0 44.032l-363.52 209.92 363.52 209.92c15.36 11.264 15.36 35.84-1.024 46.080zM499.712 864.768l320.512-186.368-321.536-185.344v371.712zM499.712 29.184v371.712l320.512-186.368-320.512-185.344z" />
<glyph unicode="&#xe924;" glyph-name="bold" d="M684.032 489.984c78.848 27.648 123.904 101.376 123.904 196.608 0 72.704-22.528 135.168-78.848 179.2-50.176 51.2-117.76 73.728-197.632 73.728h-388.096v-984.064h438.272c84.992 0 157.696 27.648 214.016 84.992 56.32 56.32 84.992 123.904 84.992 208.896 0 123.904-72.704 219.136-196.608 240.64zM357.376 749.056h140.288c62.464 0 107.52-45.056 107.52-101.376s-45.056-101.376-107.52-101.376h-140.288v202.752zM542.72 146.944h-185.344v231.424h185.344c72.704 0 129.024-45.056 129.024-112.64s-55.296-118.784-129.024-118.784z" />
<glyph unicode="&#xe925;" glyph-name="bolt-alt" d="M842.752 663.040c-9.216 13.312-26.624 18.432-41.984 13.312l-154.624-52.224 95.232 274.432c4.096 10.24 3.072 22.528-2.048 31.744-6.144 10.24-18.432 17.408-31.744 17.408h-372.736c-17.408 0-31.744-11.264-35.84-26.624l-116.736-432.128c-4.096-12.288 0-26.624 9.216-35.84s23.552-13.312 34.816-9.216l140.288 34.816-75.776-494.592c-3.072-17.408 6.144-32.768 21.504-39.936 5.12-2.048 10.24-3.072 15.36-3.072 11.264 0 22.528 5.12 29.696 15.36l485.376 665.6c9.216 11.264 9.216 28.672 0 40.96zM349.184 32.256l70.656 458.752c2.048 12.288-2.048 24.576-11.264 32.768-7.168 6.144-15.36 9.216-24.576 9.216-3.072 0-6.144 0-9.216-1.024l-137.216-32.768 107.52 398.336h340.992l-98.304-283.648c-5.12-13.312-1.024-27.648 8.192-37.888 10.24-10.24 24.576-13.312 37.888-9.216l139.264 47.104-423.936-581.632z" />
<glyph unicode="&#xe926;" glyph-name="bolt" d="M353.28-61.952c-5.12 0-11.264 1.024-16.384 4.096-14.336 8.192-20.48 25.6-15.36 39.936l146.432 418.816h-206.848c-12.288 0-23.552 6.144-30.72 16.384s-8.192 24.576-3.072 35.84l1.024 2.048 261.12 485.376c8.192 14.336 24.576 20.48 39.936 15.36s24.576-20.48 21.504-35.84l-45.056-317.44 265.216 3.072c14.336 0 26.624-7.168 32.768-20.48 6.144-12.288 5.12-27.648-3.072-38.912l-420.864-594.944c-6.144-8.192-16.384-13.312-26.624-13.312zM337.92-18.944c0 0 0 0 0 0v0zM284.672 452.096h205.824c11.264 0 22.528-6.144 29.696-15.36s8.192-21.504 4.096-32.768l-110.592-315.392 329.728 465.92-254.976-3.072c-10.24 0-20.48 4.096-27.648 12.288s-10.24 18.432-8.192 28.672l32.768 233.472-200.704-373.76zM759.808 577.024c0 0 0 0 0 0v0zM499.712 927.232c0 0 0 0 0 0v0z" />
<glyph unicode="&#xe927;" glyph-name="book" d="M694.272 137.728h-364.544c-17.408 0-30.72-12.288-30.72-30.72v-15.36c0-17.408 12.288-30.72 30.72-30.72h365.568c17.408 0 30.72 15.36 30.72 30.72v15.36c-1.024 18.432-14.336 30.72-31.744 30.72zM828.416 769.536h-541.696c-35.84 0-64.512 31.744-59.392 67.584 4.096 30.72 30.72 52.224 61.44 52.224h534.528c14.336 0 25.6 11.264 25.6 25.6s-11.264 25.6-25.6 25.6h-536.576c-61.44 0-111.616-50.176-111.616-111.616v-764.928c0-59.392 48.128-108.544 108.544-108.544h544.768c11.264 0 20.48 9.216 20.48 20.48v773.12c0 11.264-9.216 20.48-20.48 20.48zM797.696 7.68h-514.048c-31.744 0-57.344 25.6-57.344 57.344v670.72c17.408-11.264 37.888-17.408 60.416-17.408h510.976v-710.656zM284.672 578.048c0-27.648 22.528-50.176 50.176-50.176h353.28c27.648 0 50.176 22.528 50.176 50.176v56.32c0 27.648-22.528 50.176-50.176 50.176h-353.28c-27.648 0-50.176-22.528-50.176-50.176v-56.32zM688.128 634.368v-56.32l-352.256-1.024-1.024 56.32 353.28 1.024z" />
<glyph unicode="&#xe928;" glyph-name="bookmark-alt" d="M532.48 751.104v158.72c0 18.432-15.36 33.792-33.792 33.792h-350.208c-18.432 0-33.792-15.36-33.792-33.792v-159.744h-94.208c-11.264 0-20.48-9.216-20.48-20.48v-771.072c0-11.264 9.216-20.48 20.48-20.48h983.040c11.264 0 20.48 9.216 20.48 20.48v772.096c0 11.264-9.216 20.48-20.48 20.48h-471.040zM165.888 892.416h315.392v-634.88l-157.696 211.968-157.696-210.944v633.856zM971.776-9.728h-919.552v709.632h62.464v-494.592c0-14.336 9.216-27.648 23.552-31.744 3.072-1.024 7.168-2.048 10.24-2.048 10.24 0 20.48 5.12 27.648 14.336l147.456 198.656 147.456-199.68c8.192-11.264 23.552-16.384 37.888-11.264 14.336 4.096 23.552 17.408 23.552 31.744v494.592h439.296v-709.632z" />
<glyph unicode="&#xe929;" glyph-name="bookmark" d="M302.080-40.448c-4.096 0-7.168 1.024-11.264 2.048-14.336 4.096-24.576 18.432-24.576 33.792v902.144c0 20.48 15.36 35.84 35.84 35.84h443.392c20.48 0 35.84-15.36 35.84-35.84v-902.144c0-15.36-10.24-28.672-25.6-33.792s-30.72 0-39.936 12.288l-192.512 262.144-192.512-262.144c-7.168-9.216-17.408-14.336-28.672-14.336zM523.264 322.048l206.848-280.576v839.68h-412.672v-839.68l205.824 280.576z" />
<glyph unicode="&#xe92a;" glyph-name="briefcase" d="M670.72 671.232v111.616c0 14.336-11.264 25.6-25.6 25.6h-263.168c-14.336 0-25.6-11.264-25.6-25.6v-111.616h-329.728c-14.336 0-25.6-11.264-25.6-25.6v-532.48c0-14.336 11.264-25.6 25.6-25.6h972.8c14.336 0 25.6 11.264 25.6 25.6v532.48c0 14.336-11.264 25.6-25.6 25.6 0 0-328.704 0-328.704 0zM407.552 757.248h211.968v-86.016h-211.968v86.016zM973.824 620.032v-81.92l-427.008-62.464v13.312h-68.608v-14.336l-425.984 63.488v81.92h921.6zM52.224 138.752v347.136l427.008-63.488v-6.144c0-6.144 4.096-10.24 10.24-10.24h48.128c6.144 0 10.24 4.096 10.24 10.24v7.168l427.008 62.464v-347.136h-922.624z" />
<glyph unicode="&#xe92b;" glyph-name="brush-alt" d="M1012.736 849.408l-14.336 14.336c-7.168 7.168-16.384 11.264-25.6 13.312-12.288 2.048-24.576-1.024-32.768-9.216l-677.888-615.424c-7.168-5.12-11.264-12.288-13.312-19.456-6.144 1.024-13.312 2.048-19.456 2.048-17.408 0-30.72-3.072-40.96-10.24-7.168-5.12-20.48-17.408-17.408-45.056 0 0 0-2.048-4.096-7.168-28.672-29.696-56.32-44.032-84.992-45.056l-76.8-2.048 62.464-44.032c35.84-25.6 57.344-38.912 105.472-54.272 14.336-4.096 38.912-8.192 64.512-8.192 48.128 0 104.448 11.264 125.952 46.080v1.024c7.168 13.312 9.216 26.624 7.168 39.936 8.192 1.024 16.384 5.12 22.528 11.264l619.52 680.96c13.312 16.384 9.216 37.888 0 51.2zM320.512 91.648c-12.288-19.456-90.112-28.672-132.096-15.36-17.408 5.12-30.72 10.24-41.984 16.384 20.48 10.24 39.936 25.6 59.392 45.056l1.024 1.024c15.36 18.432 17.408 34.816 16.384 45.056 2.048 0 4.096 0 7.168 0 23.552 0 46.080-12.288 62.464-31.744 27.648-35.84 30.72-55.296 27.648-60.416zM365.568 161.28l-60.416 60.416 661.504 601.088-601.088-661.504z" />
<glyph unicode="&#xe92c;" glyph-name="brush" d="M998.4 556.544l-377.856 377.856c-8.192 8.192-20.48 8.192-28.672 0l-320.512-320.512c-63.488-63.488-63.488-167.936 0-231.424l26.624-26.624-252.928-252.928c-33.792-33.792-33.792-88.064 0-121.856 0 0 0 0 0 0 16.384-16.384 37.888-25.6 60.416-25.6s45.056 9.216 60.416 25.6l252.928 252.928 26.624-26.624c31.744-31.744 73.728-48.128 115.712-48.128s83.968 16.384 115.712 48.128l320.512 320.512c9.216 8.192 9.216 20.48 1.024 28.672zM878.592 603.648c-2.048-1.024-3.072-2.048-5.12-4.096l-97.28-97.28c-1.024-1.024-5.12 0-9.216 3.072-3.072 3.072-4.096 7.168-4.096 9.216l54.272 54.272c14.336 14.336 19.456 34.816 14.336 54.272-7.168 26.624-32.768 51.2-59.392 58.368-11.264 3.072-21.504 3.072-31.744 0-13.312-4.096-21.504-12.288-27.648-18.432-2.048-2.048-4.096-4.096-5.12-5.12-1.024 0-5.12 1.024-8.192 4.096v0c-3.072 3.072-4.096 7.168-4.096 9.216l58.368 58.368 124.928-125.952zM130.048 16.896c-13.312-13.312-35.84-13.312-49.152 0v0c-13.312 13.312-13.312 35.84 0 49.152l252.928 252.928 49.152-49.152-252.928-252.928zM642.048 243.2c-44.032-44.032-114.688-44.032-158.72 0l-59.392 59.392c0 0 0 0 0 0l-57.344 57.344c0 0 0 0 0 0l-59.392 59.392c-44.032 44.032-44.032 114.688 0 158.72l33.792 33.792 334.848-334.848-33.792-33.792zM711.68 313.856l-334.848 334.848 27.648 27.648 334.848-334.848-27.648-27.648zM776.192 377.344l-334.848 334.848 164.864 164.864 111.616-111.616-58.368-58.368c-21.504-21.504-19.456-57.344 4.096-80.896 0 0 0 0 0 0 16.384-16.384 39.936-23.552 59.392-17.408 13.312 4.096 21.504 12.288 26.624 18.432 2.048 2.048 4.096 5.12 5.12 5.12 0 0 2.048 0 5.12 0 8.192-2.048 20.48-12.288 22.528-22.528 1.024-3.072 0-3.072-1.024-5.12l-55.296-55.296c-20.48-20.48-18.432-57.344 4.096-80.896 22.528-22.528 57.344-24.576 79.872-5.12h1.024l94.208 94.208c4.096 4.096 11.264 5.12 16.384 2.048 0 0 1.024 0 1.024-1.024l18.432-18.432-164.864-162.816zM428.032 445.952c0-22.056-17.88-39.936-39.936-39.936s-39.936 17.88-39.936 39.936c0 22.056 17.88 39.936 39.936 39.936s39.936-17.88 39.936-39.936zM549.888 324.096c0-22.056-17.88-39.936-39.936-39.936s-39.936 17.88-39.936 39.936c0 22.056 17.88 39.936 39.936 39.936s39.936-17.88 39.936-39.936zM137.216 47.616c0-13.573-11.003-24.576-24.576-24.576s-24.576 11.003-24.576 24.576c0 13.573 11.003 24.576 24.576 24.576s24.576-11.003 24.576-24.576z" />
<glyph unicode="&#xe92d;" glyph-name="bubble" d="M1009.664 755.2c-3.072 56.32-48.128 99.328-102.4 99.328h-793.6c-55.296 0-102.4-47.104-102.4-103.424v-427.008c0-57.344 46.080-103.424 103.424-103.424h13.312c4.096 0 8.192-4.096 8.192-8.192v-133.12c0-15.36 8.192-28.672 21.504-34.816l2.048-1.024 3.072-1.024c4.096-1.024 9.216-2.048 12.288-2.048 10.24 0 18.432 3.072 25.6 10.24l166.912 163.84c4.096 4.096 9.216 6.144 15.36 6.144h522.24c55.296 0 102.4 47.104 102.4 103.424v430.080l2.048 1.024zM958.464 325.12c0-27.648-23.552-52.224-51.2-52.224h-522.24c-19.456 0-37.888-7.168-51.2-20.48l-145.408-142.336v104.448c0 32.768-26.624 59.392-59.392 59.392h-13.312c-28.672 0-52.224 23.552-52.224 52.224v427.008c0 27.648 23.552 52.224 51.2 52.224h793.6c26.624 0 49.152-22.528 51.2-50.176v-430.080z" />
<glyph unicode="&#xe92e;" glyph-name="bug" d="M333.824 742.912h356.352c15.36 0 26.624 12.288 25.6 27.648l-1.024 15.36c-4.096 77.824-71.68 140.288-149.504 140.288h-105.472c-77.824-1.024-142.336-61.44-150.528-140.288l-1.024-16.384c-1.024-14.336 10.24-26.624 25.6-26.624zM459.776 875.008h104.448c48.128 0 89.088-35.84 97.28-80.896h-300.032c11.264 46.080 51.2 79.872 98.304 80.896zM933.888 389.632h-120.832v40.96c0 55.296-15.36 106.496-43.008 150.528l86.016 86.016c10.24 10.24 10.24 26.624 0 35.84-10.24 10.24-26.624 10.24-35.84 0l-80.896-80.896c-52.224 58.368-128 94.208-212.992 94.208h-27.648c-82.944 0-156.672-34.816-208.896-91.136l-81.92 81.92c-10.24 10.24-26.624 10.24-35.84 0s-10.24-26.624 0-35.84l86.016-86.016c-28.672-45.056-46.080-98.304-46.080-154.624v-40.96h-120.832c-14.336 0-25.6-11.264-25.6-25.6v0c0-14.336 11.264-25.6 25.6-25.6h120.832v-80.896c0-47.104 11.264-91.136 31.744-130.048l-84.992-84.992c-10.24-10.24-10.24-26.624 0-35.84v0c10.24-10.24 26.624-10.24 35.84 0l76.8 76.8c52.224-67.584 135.168-111.616 227.328-111.616h27.648c94.208 0 178.176 45.056 230.4 115.712l80.896-80.896c10.24-10.24 26.624-10.24 35.84 0s10.24 26.624 0 35.84l-90.112 90.112c18.432 37.888 29.696 80.896 29.696 125.952v80.896h120.832c14.336 0 25.6 11.264 25.6 25.6v0c0 12.288-12.288 24.576-25.6 24.576zM761.856 256.512c0-130.048-105.472-235.52-235.52-235.52h-27.648c-130.048 0-235.52 105.472-235.52 235.52v174.080c0 130.048 105.472 235.52 235.52 235.52h27.648c130.048 0 235.52-105.472 235.52-235.52v-174.080z" />
<glyph unicode="&#xe92f;" glyph-name="bulb" d="M762.88 851.456c-74.752 70.656-172.032 105.472-274.432 99.328v0c-189.44-11.264-338.944-169.984-342.016-360.448-2.048-129.024 63.488-248.832 174.080-317.44v-215.040c0-62.464 51.2-112.64 112.64-112.64h156.672c62.464 0 112.64 51.2 112.64 112.64v215.040c108.544 66.56 175.104 184.32 175.104 312.32 0 101.376-40.96 196.608-114.688 266.24zM589.824 4.608h-156.672c-29.696 0-53.248 23.552-53.248 53.248v202.752h264.192v-202.752c-1.024-29.696-24.576-53.248-54.272-53.248zM665.6 320h-122.88v249.856l78.848 78.848c11.264 11.264 11.264 30.72 0 41.984v0c-11.264 11.264-30.72 11.264-41.984 0l-66.56-66.56-66.56 66.56c-11.264 11.264-30.72 11.264-41.984 0v0c-11.264-11.264-11.264-30.72 0-41.984l78.848-78.848v-250.88h-124.928c-96.256 56.32-154.624 158.72-152.576 269.312 2.048 159.744 128 291.84 286.72 301.056v0c86.016 5.12 167.936-24.576 230.4-82.944s96.256-137.216 96.256-223.232c-1.024-107.52-59.392-207.872-153.6-263.168z" />
<glyph unicode="&#xe930;" glyph-name="bullhorn" d="M886.784 949.76c-57.344 7.168-112.64-22.528-139.264-71.68l-466.944-79.872h-198.656c-40.96 0-71.68-30.72-71.68-71.68v-358.4c0-40.96 30.72-71.68 71.68-71.68h4.096l41.984-303.104v-2.048c8.192-34.816 36.864-59.392 69.632-59.392h60.416c20.48 0 40.96 9.216 55.296 25.6l1.024 1.024c12.288 15.36 17.408 33.792 15.36 52.224l-39.936 279.552 454.656-77.824c27.648-47.104 81.92-75.776 138.24-71.68 74.752 7.168 131.072 71.68 131.072 150.528v509.952c0 76.8-54.272 140.288-126.976 148.48zM308.224 751.104l431.104 73.728v-560.128l-431.104 73.728v412.672zM81.92 346.624c-12.288 0-20.48 7.168-20.48 20.48v358.4c0 12.288 7.168 20.48 20.48 20.48h175.104v-399.36h-175.104zM273.408-10.752c-4.096-5.12-10.24-7.168-15.36-7.168h-60.416c-9.216 0-16.384 7.168-19.456 18.432l-40.96 294.912h98.304l41.984-291.84c1.024-3.072 1.024-8.192-4.096-14.336zM962.56 291.328c0-52.224-36.864-94.208-84.992-99.328-33.792-2.048-68.608 15.36-87.040 43.008v0 614.4c16.384 33.792 52.224 54.272 90.112 49.152v0c47.104-5.12 81.92-47.104 81.92-97.28v-509.952z" />
<glyph unicode="&#xe931;" glyph-name="bus" d="M964.608 859.648h-83.968v36.864c0 14.336-11.264 25.6-25.6 25.6h-686.080c-14.336 0-25.6-11.264-25.6-25.6v-37.888h-83.968c-14.336 0-25.6-11.264-25.6-25.6v-155.648c0-14.336 11.264-25.6 25.6-25.6h83.968v-514.048c0-14.336 11.264-25.6 25.6-25.6h40.96v-54.272c0-44.032 32.768-81.92 76.8-84.992 48.128-3.072 87.040 34.816 87.040 81.92v57.344h276.48v-54.272c0-44.032 32.768-81.92 76.8-84.992 48.128-3.072 87.040 34.816 87.040 81.92v57.344h40.96c14.336 0 25.6 11.264 25.6 25.6v515.072h83.968c14.336 0 25.6 11.264 25.6 25.6v155.648c0 13.312-12.288 25.6-25.6 25.6zM194.56 870.912h634.88v-130.048h-634.88v130.048zM130.048 704h-45.056v104.448h44.032v-104.448zM194.56 690.688h291.84v-242.688h-291.84v242.688zM322.56 55.808c0-17.408-13.312-30.72-30.72-30.72s-30.72 13.312-30.72 30.72v57.344h61.44v-57.344zM762.88 55.808c0-17.408-13.312-30.72-30.72-30.72s-30.72 13.312-30.72 30.72v57.344h61.44v-57.344zM829.44 164.352h-634.88v232.448h634.88v-232.448zM537.6 448v242.688h291.84v-242.688h-291.84zM939.008 704h-44.032v104.448h44.032v-104.448zM310.272 186.88c51.2 0 92.16 40.96 92.16 92.16s-40.96 92.16-92.16 92.16-92.16-40.96-92.16-92.16 40.96-92.16 92.16-92.16zM310.272 320c22.528 0 40.96-18.432 40.96-40.96s-18.432-40.96-40.96-40.96-40.96 18.432-40.96 40.96 17.408 40.96 40.96 40.96zM719.872 186.88c51.2 0 92.16 40.96 92.16 92.16s-40.96 92.16-92.16 92.16-92.16-40.96-92.16-92.16 40.96-92.16 92.16-92.16zM719.872 320c22.528 0 40.96-18.432 40.96-40.96s-18.432-40.96-40.96-40.96-40.96 18.432-40.96 40.96 17.408 40.96 40.96 40.96zM548.864 304.64h-68.608c-14.336 0-25.6-11.264-25.6-25.6v0c0-14.336 11.264-25.6 25.6-25.6h68.608c14.336 0 25.6 11.264 25.6 25.6v0c0 13.312-11.264 25.6-25.6 25.6zM397.312 776.704h219.136c15.36 0 28.672 13.312 28.672 28.672v0c0 15.36-13.312 28.672-28.672 28.672h-219.136c-15.36 0-28.672-13.312-28.672-28.672v0c0-16.384 13.312-28.672 28.672-28.672z" />
<glyph unicode="&#xe932;" glyph-name="calendar" d="M137.216 449.024h9.216c10.24 0 17.408 7.168 17.408 17.408v9.216c0 10.24-7.168 17.408-17.408 17.408h-9.216c-10.24 0-17.408-7.168-17.408-17.408v-9.216c0-11.264 9.216-17.408 17.408-17.408zM246.784 449.024h9.216c10.24 0 17.408 7.168 17.408 17.408v9.216c0 10.24-7.168 17.408-17.408 17.408h-9.216c-10.24 0-17.408-7.168-17.408-17.408v-9.216c-1.024-11.264 6.144-17.408 17.408-17.408zM353.28 449.024h9.216c10.24 0 17.408 7.168 17.408 17.408v9.216c0 10.24-7.168 17.408-17.408 17.408h-9.216c-10.24 0-17.408-7.168-17.408-17.408v-9.216c0-11.264 7.168-17.408 17.408-17.408zM461.824 449.024h9.216c10.24 0 17.408 7.168 17.408 17.408v9.216c0 10.24-7.168 17.408-17.408 17.408h-9.216c-10.24 0-17.408-7.168-17.408-17.408v-9.216c0-11.264 8.192-17.408 17.408-17.408zM137.216 335.36h9.216c10.24 0 17.408 7.168 17.408 17.408v9.216c0 10.24-7.168 17.408-17.408 17.408h-9.216c-10.24 0-17.408-7.168-17.408-17.408v-9.216c0-11.264 9.216-17.408 17.408-17.408zM246.784 335.36h9.216c10.24 0 17.408 7.168 17.408 17.408v9.216c0 10.24-7.168 17.408-17.408 17.408h-9.216c-10.24 0-17.408-7.168-17.408-17.408v-9.216c-1.024-11.264 6.144-17.408 17.408-17.408zM353.28 335.36h9.216c10.24 0 17.408 7.168 17.408 17.408v9.216c0 10.24-7.168 17.408-17.408 17.408h-9.216c-10.24 0-17.408-7.168-17.408-17.408v-9.216c0-11.264 7.168-17.408 17.408-17.408zM461.824 335.36h9.216c10.24 0 17.408 7.168 17.408 17.408v9.216c0 10.24-7.168 17.408-17.408 17.408h-9.216c-10.24 0-17.408-7.168-17.408-17.408v-9.216c0-11.264 8.192-17.408 17.408-17.408zM137.216 226.816h9.216c10.24 0 17.408 7.168 17.408 17.408v9.216c0 10.24-7.168 17.408-17.408 17.408h-9.216c-10.24 0-17.408-7.168-17.408-17.408v-9.216c0-10.24 9.216-17.408 17.408-17.408zM246.784 226.816h9.216c10.24 0 17.408 7.168 17.408 17.408v9.216c0 10.24-7.168 17.408-17.408 17.408h-9.216c-10.24 0-17.408-7.168-17.408-17.408v-9.216c-1.024-10.24 6.144-17.408 17.408-17.408zM353.28 226.816h9.216c10.24 0 17.408 7.168 17.408 17.408v9.216c0 10.24-7.168 17.408-17.408 17.408h-9.216c-10.24 0-17.408-7.168-17.408-17.408v-9.216c0-10.24 7.168-17.408 17.408-17.408zM461.824 226.816h9.216c10.24 0 17.408 7.168 17.408 17.408v9.216c0 10.24-7.168 17.408-17.408 17.408h-9.216c-10.24 0-17.408-7.168-17.408-17.408v-9.216c0-10.24 8.192-17.408 17.408-17.408zM137.216 113.152h9.216c10.24 0 17.408 7.168 17.408 17.408v9.216c0 10.24-7.168 17.408-17.408 17.408h-9.216c-10.24 0-17.408-7.168-17.408-17.408v-9.216c0-10.24 9.216-17.408 17.408-17.408zM246.784 113.152h9.216c10.24 0 17.408 7.168 17.408 17.408v9.216c0 9.216-7.168 17.408-17.408 17.408h-9.216c-10.24 0-17.408-7.168-17.408-17.408v-9.216c-1.024-10.24 6.144-17.408 17.408-17.408zM364.544 157.184h-9.216c-10.24 0-17.408-7.168-17.408-17.408v-9.216c0-10.24 7.168-17.408 17.408-17.408h9.216c10.24 0 17.408 7.168 17.408 17.408v9.216c1.024 8.192-8.192 17.408-17.408 17.408zM474.112 157.184h-9.216c-10.24 0-17.408-7.168-17.408-17.408v-9.216c0-10.24 7.168-17.408 17.408-17.408h9.216c10.24 0 17.408 7.168 17.408 17.408v9.216c0 8.192-9.216 17.408-17.408 17.408zM570.368 449.024h9.216c10.24 0 17.408 7.168 17.408 17.408v9.216c0 10.24-7.168 17.408-17.408 17.408h-9.216c-10.24 0-17.408-7.168-17.408-17.408v-9.216c0-11.264 7.168-17.408 17.408-17.408zM680.96 449.024h9.216c10.24 0 17.408 7.168 17.408 17.408v9.216c0 10.24-7.168 17.408-17.408 17.408h-9.216c-10.24 0-17.408-7.168-17.408-17.408v-9.216c-2.048-11.264 6.144-17.408 17.408-17.408zM786.432 449.024h9.216c10.24 0 17.408 7.168 17.408 17.408v9.216c0 10.24-7.168 17.408-17.408 17.408h-9.216c-10.24 0-17.408-7.168-17.408-17.408v-9.216c0-11.264 8.192-17.408 17.408-17.408zM894.976 449.024h9.216c10.24 0 17.408 7.168 17.408 17.408v9.216c0 10.24-7.168 17.408-17.408 17.408h-9.216c-10.24 0-17.408-7.168-17.408-17.408v-9.216c0-11.264 7.168-17.408 17.408-17.408zM570.368 335.36h9.216c10.24 0 17.408 7.168 17.408 17.408v9.216c0 10.24-7.168 17.408-17.408 17.408h-9.216c-10.24 0-17.408-7.168-17.408-17.408v-9.216c0-11.264 7.168-17.408 17.408-17.408zM680.96 335.36h9.216c10.24 0 17.408 7.168 17.408 17.408v9.216c0 10.24-7.168 17.408-17.408 17.408h-9.216c-10.24 0-17.408-7.168-17.408-17.408v-9.216c-2.048-11.264 6.144-17.408 17.408-17.408zM786.432 335.36h9.216c10.24 0 17.408 7.168 17.408 17.408v9.216c0 10.24-7.168 17.408-17.408 17.408h-9.216c-10.24 0-17.408-7.168-17.408-17.408v-9.216c0-11.264 8.192-17.408 17.408-17.408zM894.976 335.36h9.216c10.24 0 17.408 7.168 17.408 17.408v9.216c0 10.24-7.168 17.408-17.408 17.408h-9.216c-10.24 0-17.408-7.168-17.408-17.408v-9.216c0-11.264 7.168-17.408 17.408-17.408zM570.368 226.816h9.216c10.24 0 17.408 7.168 17.408 17.408v9.216c0 10.24-7.168 17.408-17.408 17.408h-9.216c-10.24 0-17.408-7.168-17.408-17.408v-9.216c0-10.24 7.168-17.408 17.408-17.408zM680.96 226.816h9.216c10.24 0 17.408 7.168 17.408 17.408v9.216c0 10.24-7.168 17.408-17.408 17.408h-9.216c-10.24 0-17.408-7.168-17.408-17.408v-9.216c-2.048-10.24 6.144-17.408 17.408-17.408zM786.432 226.816h9.216c10.24 0 17.408 7.168 17.408 17.408v9.216c0 10.24-7.168 17.408-17.408 17.408h-9.216c-10.24 0-17.408-7.168-17.408-17.408v-9.216c0-10.24 8.192-17.408 17.408-17.408zM894.976 226.816h9.216c10.24 0 17.408 7.168 17.408 17.408v9.216c0 10.24-7.168 17.408-17.408 17.408h-9.216c-10.24 0-17.408-7.168-17.408-17.408v-9.216c0-10.24 7.168-17.408 17.408-17.408zM580.608 157.184h-9.216c-10.24 0-17.408-7.168-17.408-17.408v-9.216c0-10.24 7.168-17.408 17.408-17.408h9.216c10.24 0 17.408 7.168 17.408 17.408v9.216c1.024 8.192-5.12 17.408-17.408 17.408zM680.96 113.152h9.216c10.24 0 17.408 7.168 17.408 17.408v9.216c0 10.24-7.168 17.408-17.408 17.408h-9.216c-10.24 0-17.408-7.168-17.408-17.408v-9.216c-2.048-10.24 6.144-17.408 17.408-17.408zM986.112 707.072h-448.512v32.768c32.768 12.288 55.296 47.104 48.128 86.016-6.144 28.672-29.696 52.224-58.368 58.368-48.128 9.216-90.112-27.648-90.112-73.728 0-32.768 20.48-60.416 49.152-70.656v-32.768h-448.512c-14.336 0-25.6-11.264-25.6-25.6v-646.144c0-14.336 11.264-25.6 25.6-25.6h949.248c14.336 0 25.6 11.264 25.6 25.6v646.144c-1.024 14.336-12.288 25.6-26.624 25.6zM512 834.048c13.312 0 23.552-10.24 23.552-23.552s-10.24-23.552-23.552-23.552c-13.312 0-23.552 10.24-23.552 23.552s10.24 23.552 23.552 23.552zM960.512 61.952h-897.024v475.136h898.048v-475.136zM960.512 588.288h-897.024v67.584h898.048v-67.584z" />
<glyph unicode="&#xe933;" glyph-name="camera" d="M993.28 657.92h-247.808v79.872c0 13.312-11.264 24.576-24.576 24.576h-415.744c-13.312 0-24.576-11.264-24.576-24.576v-79.872h-247.808c-13.312 0-24.576-11.264-24.576-24.576v-476.16c0-13.312 11.264-24.576 24.576-24.576h960.512c13.312 0 24.576 11.264 24.576 24.576v476.16c1.024 14.336-10.24 24.576-24.576 24.576zM968.704 182.784h-910.336v425.984h247.808c13.312 0 24.576 11.264 24.576 24.576v79.872h365.568v-79.872c0-13.312 11.264-24.576 24.576-24.576h247.808v-425.984zM513.024 578.048c-95.232 0-173.056-77.824-173.056-173.056s77.824-172.032 173.056-172.032 173.056 77.824 173.056 172.032-77.824 173.056-173.056 173.056zM513.024 283.136c-67.584 0-122.88 55.296-122.88 122.88s55.296 122.88 122.88 122.88 122.88-55.296 122.88-122.88-55.296-122.88-122.88-122.88zM145.408 552.448c0-13.573-11.003-24.576-24.576-24.576s-24.576 11.003-24.576 24.576c0 13.573 11.003 24.576 24.576 24.576s24.576-11.003 24.576-24.576z" />
<glyph unicode="&#xe934;" glyph-name="car" d="M985.088 596.48h-29.696l-24.576 275.456c-1.024 13.312-12.288 23.552-25.6 23.552h-786.432c-13.312 0-24.576-10.24-25.6-23.552l-24.576-275.456h-28.672c-14.336 0-25.6-11.264-25.6-25.6v-394.24c0-14.336 11.264-25.6 25.6-25.6h59.392v-123.904c0-14.336 11.264-25.6 25.6-25.6h130.048c14.336 0 25.6 11.264 25.6 25.6v123.904h463.872v-123.904c0-14.336 11.264-25.6 25.6-25.6h130.048c14.336 0 25.6 11.264 25.6 25.6v123.904h59.392c14.336 0 25.6 11.264 25.6 25.6v394.24c0 14.336-11.264 25.6-25.6 25.6zM142.336 844.288h739.328l21.504-247.808h-782.336l21.504 247.808zM229.376 51.712h-78.848v99.328h78.848v-99.328zM874.496 51.712h-78.848v99.328h78.848v-99.328zM959.488 202.24h-893.952v343.040h893.952v-343.040zM240.64 253.44c68.608 0 124.928 56.32 124.928 124.928s-56.32 124.928-124.928 124.928c-68.608 0-124.928-56.32-124.928-124.928 1.024-69.632 56.32-124.928 124.928-124.928zM240.64 451.072c40.96 0 73.728-32.768 73.728-73.728s-32.768-73.728-73.728-73.728-73.728 32.768-73.728 73.728c1.024 40.96 33.792 73.728 73.728 73.728zM783.36 253.44c68.608 0 124.928 56.32 124.928 124.928s-56.32 124.928-124.928 124.928c-68.608 0-124.928-56.32-124.928-124.928 1.024-69.632 56.32-124.928 124.928-124.928zM783.36 451.072c40.96 0 73.728-32.768 73.728-73.728s-32.768-73.728-73.728-73.728c-40.96 0-73.728 32.768-73.728 73.728 1.024 40.96 33.792 73.728 73.728 73.728zM551.936 402.944h-78.848c-14.336 0-25.6-11.264-25.6-25.6v0c0-14.336 11.264-25.6 25.6-25.6h78.848c14.336 0 25.6 11.264 25.6 25.6v0c0 14.336-11.264 25.6-25.6 25.6z" />
<glyph unicode="&#xe935;" glyph-name="cart-full" d="M269.312 169.472c-51.2 0-93.184-41.984-93.184-93.184s41.984-93.184 93.184-93.184 93.184 41.984 93.184 93.184-41.984 93.184-93.184 93.184zM269.312 34.304c-23.552 0-41.984 18.432-41.984 41.984s18.432 41.984 41.984 41.984 41.984-18.432 41.984-41.984c0-22.528-18.432-41.984-41.984-41.984zM754.688 169.472c-51.2 0-93.184-41.984-93.184-93.184s41.984-93.184 93.184-93.184 93.184 41.984 93.184 93.184-41.984 93.184-93.184 93.184zM754.688 34.304c-23.552 0-41.984 18.432-41.984 41.984s18.432 41.984 41.984 41.984 41.984-18.432 41.984-41.984c0-22.528-18.432-41.984-41.984-41.984zM967.68 912.896h-94.208c-10.24 0-19.456-8.192-20.48-18.432l-13.312-176.128h-17.408v146.432c0 28.672-22.528 51.2-51.2 51.2h-163.84c-28.672 0-51.2-22.528-51.2-51.2v-47.104c-10.24 4.096-21.504 7.168-32.768 7.168h-356.352c-47.104 0-84.992-37.888-84.992-84.992v-21.504h-27.648c-16.384 0-28.672-15.36-24.576-30.72l102.4-484.352c2.048-12.288 13.312-20.48 24.576-20.48h675.84c13.312 0 24.576 10.24 25.6 23.552l44.032 655.36h67.584c15.36 0 26.624 13.312 25.6 28.672-2.048 12.288-13.312 22.528-27.648 22.528zM617.472 864.768h143.36c6.144 0 10.24-4.096 10.24-10.24v-126.976h-163.84v12.288c0 0 0 0 0 0v114.688c0 6.144 5.12 10.24 10.24 10.24zM133.12 739.84c0 18.432 15.36 33.792 33.792 33.792h356.352c18.432 0 32.768-15.36 32.768-32.768v-21.504h-422.912v20.48zM808.96 233.984h-631.808l-91.136 433.152h749.568l-26.624-433.152z" />
<glyph unicode="&#xe936;" glyph-name="cart" d="M967.68 912.896h-94.208c-10.24 0-19.456-8.192-20.48-18.432l-13.312-176.128h-785.408c-16.384 0-28.672-15.36-24.576-30.72l102.4-484.352c2.048-12.288 13.312-20.48 24.576-20.48h675.84c13.312 0 24.576 10.24 25.6 23.552l44.032 655.36h67.584c15.36 0 26.624 13.312 25.6 28.672-2.048 12.288-13.312 22.528-27.648 22.528zM808.96 233.984h-631.808l-91.136 433.152h750.592l-27.648-433.152zM269.312 169.472c-51.2 0-93.184-41.984-93.184-93.184s41.984-93.184 93.184-93.184 93.184 41.984 93.184 93.184c0 51.2-41.984 93.184-93.184 93.184zM269.312 34.304c-23.552 0-41.984 18.432-41.984 41.984s18.432 41.984 41.984 41.984 41.984-18.432 41.984-41.984c0-22.528-18.432-41.984-41.984-41.984zM754.688 169.472c-51.2 0-93.184-41.984-93.184-93.184s41.984-93.184 93.184-93.184c51.2 0 93.184 41.984 93.184 93.184s-41.984 93.184-93.184 93.184zM754.688 34.304c-23.552 0-41.984 18.432-41.984 41.984s18.432 41.984 41.984 41.984c23.552 0 41.984-18.432 41.984-41.984 0-22.528-18.432-41.984-41.984-41.984z" />
<glyph unicode="&#xe937;" glyph-name="check-box" d="M998.4 709.12h-135.168l153.6 153.6c10.24 10.24 10.24 26.624 0 35.84s-26.624 10.24-35.84 0l-189.44-189.44h-765.952c-14.336 0-25.6-11.264-25.6-25.6v-665.6c0-14.336 11.264-25.6 25.6-25.6h972.8c14.336 0 25.6 11.264 25.6 25.6v665.6c0 14.336-11.264 25.6-25.6 25.6zM972.8 43.52h-921.6v614.4h689.152l-282.624-281.6-89.088 88.064c-10.24 10.24-26.624 10.24-35.84 0s-10.24-26.624 0-36.864l109.568-109.568c8.192-8.192 20.48-8.192 28.672 0l339.968 338.944h161.792v-613.376z" />
<glyph unicode="&#xe938;" glyph-name="check-mark-circle" d="M512 951.808c-278.528 0-504.832-226.304-504.832-504.832 1.024-278.528 227.328-503.808 504.832-503.808 278.528 0 504.832 225.28 504.832 503.808s-226.304 504.832-504.832 504.832zM512-5.632c-249.856 0-452.608 202.752-452.608 452.608s202.752 453.632 452.608 453.632c249.856 0 453.632-203.776 453.632-453.632s-203.776-452.608-453.632-452.608zM708.608 627.2l-305.152-305.152-89.088 89.088c-10.24 10.24-26.624 10.24-35.84 0s-10.24-26.624 0-36.864l109.568-109.568c8.192-8.192 20.48-8.192 28.672 0l327.68 326.656c10.24 10.24 10.24 26.624 0 35.84s-26.624 10.24-35.84 0z" />
<glyph unicode="&#xe939;" glyph-name="chevron-down-circle" d="M514.048-56.832c278.528 0 504.832 225.28 504.832 503.808s-226.304 504.832-504.832 504.832-504.832-226.304-504.832-504.832c1.024-278.528 227.328-503.808 504.832-503.808zM514.048 900.608c249.856 0 453.632-203.776 453.632-453.632s-203.776-452.608-453.632-452.608-452.608 202.752-452.608 452.608 202.752 453.632 452.608 453.632zM173.056 591.36l326.656-326.656c8.192-8.192 20.48-8.192 28.672 0l327.68 326.656c10.24 10.24 10.24 26.624 0 35.84s-26.624 10.24-35.84 0l-305.152-305.152-306.176 306.176c-10.24 10.24-26.624 10.24-35.84 0s-10.24-26.624 0-36.864z" />
<glyph unicode="&#xe93a;" glyph-name="chevron-down" d="M33.792 692.736v0c10.24 10.24 26.624 10.24 35.84 0l452.608-452.608 452.608 452.608c10.24 10.24 26.624 10.24 35.84 0v0c10.24-10.24 10.24-26.624 0-35.84l-474.112-475.136c-8.192-8.192-20.48-8.192-28.672 0l-474.112 474.112c-10.24 10.24-10.24 26.624 0 36.864z" />
<glyph unicode="&#xe93b;" glyph-name="chevron-left-circle" d="M9.216 448c0-278.528 225.28-504.832 503.808-504.832s505.856 225.28 505.856 504.832-226.304 503.808-504.832 503.808c-279.552-1.024-504.832-226.304-504.832-503.808zM967.68 448c0-249.856-203.776-453.632-453.632-453.632s-453.632 202.752-453.632 453.632 202.752 452.608 452.608 452.608 454.656-203.776 454.656-452.608zM658.432 787.968l-327.68-326.656c-8.192-8.192-8.192-20.48 0-28.672l326.656-327.68c10.24-10.24 26.624-10.24 35.84 0s10.24 26.624 0 35.84l-305.152 305.152 306.176 306.176c10.24 10.24 10.24 26.624 0 35.84s-25.6 10.24-35.84 0z" />
<glyph unicode="&#xe93c;" glyph-name="chevron-left" d="M777.216 926.208v0c10.24-10.24 10.24-26.624 0-35.84l-452.608-452.608 452.608-452.608c10.24-10.24 10.24-26.624 0-35.84v0c-10.24-10.24-26.624-10.24-35.84 0l-475.136 474.112c-8.192 8.192-8.192 20.48 0 28.672l474.112 474.112c10.24 10.24 26.624 10.24 36.864 0z" />
<glyph unicode="&#xe93d;" glyph-name="chevron-right-circle" d="M369.664 788.992c-10.24 10.24-26.624 10.24-35.84 0s-10.24-26.624 0-35.84l304.128-305.152-305.152-305.152c-10.24-10.24-10.24-26.624 0-35.84s26.624-10.24 35.84 0l327.68 326.656c8.192 8.192 8.192 20.48 0 28.672l-326.656 326.656zM514.048 951.808c-278.528 0-504.832-225.28-504.832-503.808s226.304-504.832 504.832-504.832c278.528 0 504.832 226.304 504.832 504.832-1.024 278.528-227.328 503.808-504.832 503.808zM514.048-5.632c-249.856 0-453.632 203.776-453.632 453.632s203.776 452.608 453.632 452.608 452.608-202.752 452.608-452.608-202.752-453.632-452.608-453.632z" />
<glyph unicode="&#xe93e;" glyph-name="chevron-right" d="M257.024-40.448v0c-10.24 10.24-10.24 26.624 0 35.84l452.608 452.608-452.608 452.608c-10.24 10.24-10.24 26.624 0 35.84v0c10.24 10.24 26.624 10.24 35.84 0l475.136-474.112c8.192-8.192 8.192-20.48 0-28.672l-474.112-474.112c-10.24-10.24-26.624-10.24-36.864 0z" />
<glyph unicode="&#xe93f;" glyph-name="chevron-up-circle" d="M514.048 951.808c-278.528 0-504.832-225.28-504.832-503.808s226.304-504.832 504.832-504.832c278.528 0 504.832 226.304 504.832 504.832-1.024 278.528-227.328 503.808-504.832 503.808zM514.048-5.632c-249.856 0-453.632 203.776-453.632 453.632s203.776 452.608 453.632 452.608 452.608-202.752 452.608-452.608-202.752-453.632-452.608-453.632zM855.040 303.616l-326.656 326.656c-8.192 8.192-20.48 8.192-28.672 0l-327.68-326.656c-10.24-10.24-10.24-26.624 0-35.84s26.624-10.24 35.84 0l305.152 305.152 306.176-306.176c10.24-10.24 26.624-10.24 35.84 0s10.24 26.624 0 36.864z" />
<glyph unicode="&#xe940;" glyph-name="chevron-up" d="M172.032 303.616c-10.24-10.24-10.24-26.624 0-35.84s26.624-10.24 35.84 0l305.152 305.152 306.176-306.176c10.24-10.24 26.624-10.24 35.84 0s10.24 26.624 0 35.84l-326.656 327.68c-8.192 8.192-20.48 8.192-28.672 0l-327.68-326.656z" />
<glyph unicode="&#xe941;" glyph-name="chrome" d="M512 954.88c-279.552 0-506.88-227.328-506.88-506.88s227.328-506.88 506.88-506.88c279.552 0 506.88 227.328 506.88 506.88s-227.328 506.88-506.88 506.88zM512 903.68c173.056 0 323.584-96.256 400.384-238.592l-401.408-14.336c-110.592 0-201.728-91.136-201.728-201.728 0-25.6 5.12-49.152 13.312-71.68l-261.12 136.192c31.744 220.16 221.184 390.144 450.56 390.144zM512 296.448c-82.944 0-151.552 67.584-151.552 151.552 0 82.944 67.584 151.552 151.552 151.552 82.944 0 151.552-67.584 151.552-151.552-1.024-82.944-68.608-151.552-151.552-151.552zM56.32 448c0 3.072 0 7.168 0 10.24l354.304-185.344c29.696-17.408 64.512-27.648 101.376-27.648 32.768 0 63.488 8.192 91.136 22.528l-107.52-275.456c-243.712 9.216-439.296 209.92-439.296 455.68zM550.912-5.632l145.408 369.664c12.288 25.6 18.432 54.272 18.432 83.968 0 62.464-28.672 118.784-73.728 155.648l294.912 10.24c20.48-51.2 31.744-107.52 31.744-166.912 0-236.544-183.296-433.152-416.768-452.608z" />
<glyph unicode="&#xe942;" glyph-name="circle-minus" d="M514.048 951.808c-278.528 0-504.832-225.28-504.832-503.808s226.304-504.832 504.832-504.832c278.528 0 504.832 226.304 504.832 504.832-1.024 278.528-227.328 503.808-504.832 503.808zM514.048-5.632c-249.856 0-453.632 203.776-453.632 453.632s203.776 452.608 453.632 452.608 452.608-202.752 452.608-452.608-202.752-453.632-452.608-453.632zM773.12 473.6h-501.76c-14.336 0-25.6-11.264-25.6-25.6s11.264-25.6 25.6-25.6h501.76c14.336 0 25.6 11.264 25.6 25.6s-11.264 25.6-25.6 25.6z" />
<glyph unicode="&#xe943;" glyph-name="clipboard" d="M748.544 806.4v38.912c0 11.264-9.216 20.48-20.48 20.48h-131.072v23.552c0 33.792-27.648 61.44-61.44 61.44v0c-33.792 0-61.44-27.648-61.44-61.44v-23.552h-130.048c-11.264 0-20.48-9.216-20.48-20.48v-38.912h-107.52c-11.264 0-20.48-9.216-20.48-20.48v-824.32c0-11.264 9.216-20.48 20.48-20.48h640c11.264 0 20.48 9.216 20.48 20.48v824.32c0 11.264-9.216 20.48-20.48 20.48h-107.52zM374.784 813.568h140.288c6.144 0 10.24 4.096 10.24 10.24v64.512c0 6.144 5.12 10.24 10.24 10.24v0c6.144 0 10.24-5.12 10.24-10.24v-64.512c0-6.144 4.096-10.24 10.24-10.24h140.288v-66.56h-321.536v66.56zM825.344-7.68h-578.56v762.88h76.8v-38.912c0-11.264 9.216-20.48 20.48-20.48h384c11.264 0 20.48 9.216 20.48 20.48v38.912h76.8v-762.88z" />
<glyph unicode="&#xe944;" glyph-name="close" d="M918.528 854.528v0c-10.24 10.24-26.624 10.24-35.84 0l-370.688-370.688-369.664 370.688c-10.24 10.24-26.624 10.24-35.84 0v0c-10.24-10.24-10.24-26.624 0-35.84l369.664-370.688-370.688-369.664c-10.24-10.24-10.24-26.624 0-35.84v0c10.24-10.24 26.624-10.24 35.84 0l370.688 369.664 369.664-369.664c10.24-10.24 26.624-10.24 35.84 0v0c10.24 10.24 10.24 26.624 0 35.84l-369.664 369.664 369.664 369.664c10.24 10.24 10.24 26.624 1.024 36.864z" />
<glyph unicode="&#xe945;" glyph-name="cloud-check" d="M265.216 84.48c-38.912 0-79.872 10.24-117.76 28.672-88.064 46.080-141.312 134.144-141.312 232.448 0 84.992 44.032 164.864 116.736 214.016 65.536 45.056 143.36 57.344 216.064 33.792 19.456 124.928 125.952 218.112 257.024 218.112 112.64 0 214.016-73.728 246.784-179.2 4.096-10.24 7.168-27.648 9.216-41.984 13.312-5.12 26.624-12.288 40.96-21.504 80.896-48.128 128-132.096 126.976-223.232 0-88.064-45.056-172.032-118.784-219.136-44.032-26.624-92.16-40.96-141.312-40.96l-494.592-1.024zM265.216 554.496c-39.936 0-78.848-12.288-113.664-36.864-59.392-39.936-94.208-104.448-94.208-172.032 0-78.848 43.008-150.528 113.664-186.368 30.72-15.36 63.488-22.528 95.232-22.528l494.592 1.024c38.912 0 78.848 11.264 113.664 32.768 58.368 36.864 94.208 104.448 94.208 176.128 1.024 73.728-37.888 140.288-103.424 180.224-16.384 11.264-30.72 17.408-44.032 20.48l-19.456 5.12v17.408c-1.024 7.168-4.096 34.816-8.192 45.056v1.024c-25.6 84.992-107.52 143.36-197.632 143.36-112.64 0-205.824-91.136-208.896-202.752l-1.024-35.84-48.128 18.432c-23.552 10.24-48.128 15.36-72.704 15.36zM708.608 627.2l-305.152-305.152-89.088 89.088c-10.24 10.24-26.624 10.24-35.84 0s-10.24-26.624 0-36.864l109.568-109.568c8.192-8.192 20.48-8.192 28.672 0l327.68 326.656c10.24 10.24 10.24 26.624 0 35.84s-26.624 10.24-35.84 0z" />
<glyph unicode="&#xe946;" glyph-name="cloud-download" d="M891.904 699.904c-14.336 9.216-27.648 16.384-40.96 21.504-2.048 14.336-5.12 31.744-9.216 41.984-32.768 105.472-134.144 179.2-246.784 179.2-131.072 0-237.568-93.184-257.024-218.112-72.704 23.552-150.528 11.264-216.064-33.792-72.704-49.152-116.736-129.024-116.736-214.016 0-98.304 53.248-186.368 141.312-232.448 37.888-18.432 78.848-28.672 117.76-28.672h221.184v-169.984l-77.824 78.848c-10.24 10.24-26.624 10.24-35.84 0-10.24-10.24-10.24-26.624 0-35.84l133.12-132.096c4.096-4.096 10.24-4.096 14.336 0l133.12 132.096c10.24 10.24 10.24 26.624 0 35.84-10.24 10.24-26.624 10.24-35.84 0l-77.824-78.848v171.008h220.16c49.152 0 97.28 14.336 141.312 40.96 73.728 47.104 118.784 131.072 118.784 219.136 1.024 91.136-46.080 175.104-126.976 223.232zM873.472 301.568c-34.816-21.504-74.752-32.768-113.664-32.768h-221.184v335.872c0 14.336-11.264 25.6-25.6 25.6-16.384 0-27.648-11.264-27.648-25.6v-336.896h-220.16c-31.744 0-64.512 7.168-95.232 22.528-70.656 35.84-113.664 107.52-113.664 186.368 0 67.584 34.816 132.096 94.208 172.032 34.816 24.576 73.728 36.864 113.664 36.864 24.576 0 49.152-5.12 72.704-15.36l48.128-18.432 1.024 35.84c3.072 111.616 96.256 202.752 208.896 202.752 90.112 0 172.032-58.368 197.632-143.36v-1.024c4.096-10.24 7.168-37.888 8.192-45.056v-17.408l19.456-5.12c13.312-3.072 27.648-9.216 44.032-20.48 65.536-39.936 104.448-106.496 103.424-180.224 0-71.68-35.84-139.264-94.208-176.128z" />
<glyph unicode="&#xe947;" glyph-name="cloud-sync" d="M891.904 568.832c-14.336 9.216-27.648 16.384-40.96 21.504-2.048 13.312-5.12 30.72-9.216 41.984-32.768 105.472-134.144 179.2-246.784 179.2-130.048 0-236.544-93.184-257.024-218.112-72.704 23.552-150.528 11.264-216.064-33.792-73.728-49.152-116.736-129.024-116.736-214.016 0-98.304 54.272-186.368 141.312-232.448 38.912-18.432 78.848-28.672 117.76-28.672l494.592 1.024c49.152 0 97.28 14.336 141.312 40.96 72.704 47.104 118.784 131.072 118.784 219.136 1.024 91.136-47.104 175.104-126.976 223.232zM873.472 169.472c-34.816-21.504-74.752-32.768-113.664-32.768l-494.592-1.024c-30.72 0-64.512 8.192-95.232 22.528-69.632 36.864-113.664 107.52-113.664 186.368 0 67.584 34.816 132.096 94.208 172.032 34.816 24.576 74.752 36.864 113.664 36.864 24.576 0 49.152-5.12 72.704-14.336l48.128-18.432 1.024 35.84c3.072 111.616 96.256 202.752 208.896 202.752 90.112 0 172.032-59.392 197.632-143.36v-1.024c4.096-10.24 7.168-37.888 8.192-45.056v-18.432l19.456-5.12c13.312-4.096 27.648-10.24 44.032-20.48 65.536-38.912 104.448-106.496 103.424-180.224 0-70.656-36.864-138.24-94.208-176.128zM535.552 438.784v0c-10.24 10.24-26.624 10.24-35.84 0l-33.792-33.792c13.312 70.656 75.776 124.928 150.528 124.928 36.864 0 71.68-13.312 99.328-35.84 9.216-8.192 23.552-8.192 33.792 1.024v0c11.264 10.24 11.264 28.672 0 38.912-36.864 30.72-82.944 48.128-132.096 48.128-102.4 0-187.392-75.776-201.728-174.080l-30.72 30.72c-10.24 10.24-26.624 10.24-35.84 0v0c-10.24-10.24-10.24-26.624 0-35.84l79.872-79.872c8.192-8.192 20.48-8.192 28.672 0l79.872 79.872c8.192 10.24 8.192 25.6-2.048 35.84zM809.984 441.856c-8.192 8.192-20.48 8.192-28.672 0l-79.872-79.872c-10.24-10.24-10.24-26.624 0-35.84s26.624-10.24 35.84 0l29.696 29.696c-4.096-22.528-10.24-44.032-19.456-58.368-27.648-46.080-76.8-72.704-131.072-72.704-43.008 0-82.944 17.408-111.616 49.152-8.192 9.216-22.528 10.24-32.768 3.072v0c-12.288-9.216-14.336-26.624-4.096-37.888 37.888-40.96 92.16-64.512 149.504-64.512 71.68 0 137.216 36.864 174.080 97.28 14.336 23.552 24.576 56.32 28.672 90.112l33.792-33.792c10.24-10.24 26.624-10.24 35.84 0s10.24 26.624 0 35.84l-79.872 77.824z" />
<glyph unicode="&#xe948;" glyph-name="cloud-upload" d="M892.928 694.784c-14.336 9.216-27.648 16.384-40.96 21.504-2.048 14.336-5.12 31.744-9.216 41.984-32.768 105.472-134.144 179.2-246.784 179.2-131.072 0-237.568-93.184-257.024-218.112-72.704 23.552-150.528 11.264-216.064-33.792-72.704-49.152-116.736-129.024-116.736-214.016 0-98.304 53.248-186.368 141.312-232.448 37.888-18.432 78.848-28.672 117.76-28.672h221.184v-226.304c0-14.336 11.264-25.6 25.6-25.6 16.384 0 27.648 11.264 27.648 25.6v227.328h220.16c49.152 0 97.28 14.336 141.312 40.96 73.728 47.104 118.784 131.072 118.784 219.136 1.024 91.136-46.080 175.104-126.976 223.232zM874.496 296.448c-34.816-21.504-74.752-32.768-113.664-32.768h-221.184v269.312l77.824-78.848c10.24-10.24 26.624-10.24 35.84 0 10.24 10.24 10.24 26.624 0 35.84l-133.12 132.096c-4.096 4.096-10.24 4.096-14.336 0l-133.12-132.096c-10.24-10.24-10.24-26.624 0-35.84 10.24-10.24 26.624-10.24 35.84 0l77.824 78.848v-270.336h-220.16c-31.744 0-64.512 7.168-95.232 22.528-70.656 35.84-113.664 107.52-113.664 186.368 0 67.584 34.816 132.096 94.208 172.032 34.816 24.576 73.728 36.864 113.664 36.864 24.576 0 49.152-5.12 72.704-15.36l48.128-18.432 1.024 35.84c3.072 111.616 96.256 202.752 208.896 202.752 90.112 0 172.032-58.368 197.632-143.36v-1.024c4.096-10.24 7.168-37.888 8.192-45.056v-17.408l19.456-5.12c13.312-3.072 27.648-9.216 44.032-20.48 65.536-39.936 104.448-106.496 103.424-180.224 0-71.68-35.84-139.264-94.208-176.128z" />
<glyph unicode="&#xe949;" glyph-name="cloud" d="M265.216 84.48c-38.912 0-79.872 10.24-117.76 28.672-88.064 46.080-141.312 134.144-141.312 232.448 0 84.992 44.032 164.864 116.736 214.016 65.536 45.056 143.36 57.344 216.064 33.792 19.456 124.928 125.952 218.112 257.024 218.112 112.64 0 214.016-73.728 246.784-179.2 4.096-10.24 7.168-27.648 9.216-41.984 13.312-5.12 26.624-12.288 40.96-21.504 80.896-48.128 128-132.096 126.976-223.232 0-88.064-45.056-172.032-118.784-219.136-44.032-26.624-92.16-40.96-141.312-40.96l-494.592-1.024zM265.216 554.496c-39.936 0-78.848-12.288-113.664-36.864-59.392-39.936-94.208-104.448-94.208-172.032 0-78.848 43.008-150.528 113.664-186.368 30.72-15.36 63.488-22.528 95.232-22.528l494.592 1.024c38.912 0 78.848 11.264 113.664 32.768 58.368 36.864 94.208 104.448 94.208 176.128 1.024 73.728-37.888 140.288-103.424 180.224-16.384 11.264-30.72 17.408-44.032 20.48l-19.456 5.12v17.408c-1.024 7.168-4.096 34.816-8.192 45.056v1.024c-25.6 84.992-107.52 143.36-197.632 143.36-112.64 0-205.824-91.136-208.896-202.752l-1.024-35.84-48.128 18.432c-23.552 10.24-48.128 15.36-72.704 15.36z" />
<glyph unicode="&#xe94a;" glyph-name="code" d="M76.8 448l241.664 241.664c10.24 10.24 10.24 26.624 0 35.84v0c-10.24 10.24-26.624 10.24-35.84 0l-260.096-259.072c-10.24-10.24-10.24-26.624 0-35.84l260.096-260.096c10.24-10.24 26.624-10.24 35.84 0v0c10.24 10.24 10.24 26.624 0 35.84l-241.664 241.664zM1001.472 466.432l-259.072 260.096c-10.24 10.24-26.624 10.24-35.84 0v0c-10.24-10.24-10.24-26.624 0-35.84l240.64-242.688-241.664-241.664c-10.24-10.24-10.24-26.624 0-35.84s26.624-10.24 35.84 0l260.096 260.096c10.24 9.216 10.24 25.6 0 35.84zM626.688 787.968v0c-13.312 4.096-27.648-3.072-32.768-16.384l-212.992-630.784c-4.096-13.312 3.072-27.648 16.384-32.768v0c13.312-4.096 27.648 3.072 32.768 16.384l212.992 630.784c4.096 14.336-3.072 28.672-16.384 32.768z" />
<glyph unicode="&#xe94b;" glyph-name="coffee-cup" d="M832.512 273.92c10.24-2.048 19.456-3.072 29.696-3.072 82.944 0 149.504 75.776 149.504 168.96s-67.584 168.96-149.504 168.96c-4.096 0-8.192 0-13.312-1.024 0 12.288-10.24 22.528-22.528 22.528h-199.68c21.504 5.12 41.984 14.336 60.416 25.6 5.12 3.072 14.336 8.192 19.456 20.48 3.072 7.168 4.096 13.312 4.096 17.408 1.024 15.36 3.072 48.128-20.48 67.584-15.36 13.312-33.792 14.336-48.128 15.36h-2.048c-24.576 2.048-49.152 7.168-71.68 16.384-4.096 1.024-13.312 5.12-16.384 9.216s-2.048 13.312 3.072 19.456c6.144 8.192 17.408 14.336 33.792 18.432 8.192 2.048 17.408 4.096 26.624 5.12 12.288 1.024 21.504 12.288 21.504 24.576v1.024c0 15.36-13.312 27.648-28.672 25.6-11.264-1.024-21.504-3.072-32.768-6.144-26.624-7.168-47.104-19.456-59.392-35.84-19.456-24.576-21.504-59.392-3.072-81.92 11.264-15.36 27.648-21.504 41.984-26.624 26.624-10.24 54.272-15.36 82.944-17.408h2.048c6.144 0 15.36-1.024 18.432-3.072 1.024-1.024 4.096-6.144 2.048-23.552-18.432-11.264-38.912-18.432-60.416-21.504l-6.144-1.024c-12.288-2.048-27.648-4.096-41.984-12.288-12.288-7.168-21.504-19.456-24.576-32.768h-217.088c21.504 5.12 41.984 14.336 60.416 25.6 5.12 3.072 14.336 8.192 19.456 20.48 3.072 7.168 4.096 13.312 4.096 17.408 1.024 15.36 3.072 48.128-20.48 67.584-15.36 13.312-33.792 14.336-48.128 15.36h-2.048c-24.576 2.048-49.152 7.168-71.68 16.384-4.096 1.024-13.312 5.12-16.384 9.216s-2.048 13.312 3.072 19.456c6.144 8.192 17.408 14.336 33.792 18.432 8.192 2.048 17.408 4.096 26.624 5.12 12.288 1.024 21.504 12.288 21.504 24.576v1.024c0 15.36-13.312 27.648-28.672 25.6-11.264-1.024-21.504-3.072-32.768-6.144-26.624-7.168-47.104-19.456-59.392-35.84-19.456-24.576-21.504-59.392-3.072-81.92 11.264-15.36 28.672-21.504 41.984-26.624 26.624-9.216 54.272-15.36 82.944-17.408h2.048c6.144 0 15.36-1.024 18.432-3.072 1.024-1.024 3.072-6.144 2.048-23.552-18.432-11.264-38.912-18.432-60.416-21.504l-6.144-1.024c-12.288-2.048-27.648-4.096-41.984-12.288-12.288-7.168-21.504-19.456-24.576-32.768h-110.592c-12.288 0-22.528-10.24-22.528-22.528v-220.16c0-143.36 78.848-268.288 194.56-335.872h-228.352c-14.336 0-25.6-11.264-25.6-25.6s11.264-25.6 25.6-25.6h829.44c14.336 0 25.6 11.264 25.6 25.6s-11.264 25.6-25.6 25.6h-218.112c83.968 39.936 148.48 119.808 177.152 214.016zM849.92 387.584v168.96c4.096 1.024 8.192 1.024 13.312 1.024 54.272 0 98.304-53.248 98.304-117.76s-44.032-117.76-98.304-117.76c-6.144 0-12.288 1.024-18.432 2.048 3.072 20.48 5.12 40.96 5.12 63.488zM462.848 51.712c-185.344 0-335.872 150.528-335.872 335.872v192.512h670.72v-192.512c1.024-185.344-149.504-335.872-334.848-335.872z" />
<glyph unicode="&#xe94c;" glyph-name="cog" d="M1013.76 530.944c-7.168 22.528-26.624 41.984-55.296 41.984h-65.536c-6.144 19.456-14.336 38.912-23.552 57.344l50.176 50.176c10.24 10.24 15.36 23.552 15.36 36.864s-5.12 26.624-15.36 36.864l-102.4 102.4c-20.48 20.48-53.248 20.48-74.752 0l-51.2-51.2c-16.384 8.192-34.816 15.36-57.344 22.528v67.584c0 31.744-25.6 57.344-57.344 57.344h-131.072c-31.744 0-57.344-25.6-57.344-57.344v-67.584c-19.456-6.144-37.888-14.336-56.32-23.552l-51.2 52.224c-20.48 20.48-53.248 20.48-73.728 0l-102.4-102.4c-10.24-10.24-15.36-23.552-15.36-36.864s5.12-26.624 15.36-36.864l49.152-49.152c-9.216-18.432-17.408-37.888-23.552-57.344h-65.536c-31.744 0-57.344-25.6-57.344-57.344v-133.12c0-31.744 25.6-57.344 57.344-57.344h66.56c6.144-19.456 14.336-38.912 23.552-58.368l-50.176-50.176c-10.24-10.24-15.36-23.552-15.36-36.864 0-15.36 6.144-28.672 16.384-37.888l101.376-101.376c19.456-19.456 52.224-19.456 72.704-1.024l50.176 50.176c17.408-9.216 37.888-18.432 59.392-24.576v-63.488c0-31.744 25.6-57.344 57.344-57.344h133.12c31.744 0 57.344 25.6 57.344 57.344v63.488c23.552 8.192 43.008 15.36 59.392 23.552l49.152-49.152c10.24-10.24 23.552-15.36 36.864-15.36s26.624 5.12 36.864 15.36l102.4 102.4c10.24 10.24 15.36 23.552 15.36 36.864s-5.12 26.624-15.36 36.864l-50.176 50.176c9.216 17.408 17.408 36.864 23.552 58.368h65.536c31.744 0 57.344 25.6 57.344 57.344v143.36l-4.096 5.12zM967.68 382.464c0-4.096-3.072-6.144-6.144-6.144h-95.232l-14.336-14.336-2.048-7.168c-6.144-29.696-19.456-55.296-31.744-78.848l-3.072-6.144v-6.144c0-8.192 3.072-15.36 8.192-21.504l61.44-61.44c1.024-1.024 1.024-1.024 0-2.048l-102.4-102.4c0 0-1.024 0-2.048 0l-69.632 69.632h-10.24c-5.12 0-10.24-1.024-16.384-4.096-20.48-11.264-45.056-21.504-77.824-31.744-7.168-2.048-12.288-6.144-14.336-8.192l-7.168-7.168v-92.16c0-4.096-3.072-6.144-6.144-6.144h-133.12c-4.096 0-6.144 3.072-6.144 6.144v92.16l-14.336 14.336-7.168 2.048c-24.576 5.12-47.104 15.36-67.584 25.6v2.048l-15.36 6.144c-10.24 4.096-21.504 2.048-28.672-6.144l-61.44-61.44c-1.024 0-2.048-1.024-3.072-1.024l-103.424 103.424c0 0 0 1.024 1.024 1.024l70.656 70.656v10.24c0 6.144-2.048 11.264-5.12 16.384-13.312 25.6-23.552 51.2-31.744 78.848l-2.048 6.144-13.312 13.312h-95.232c-4.096 0-6.144 3.072-6.144 6.144v133.12c0 4.096 3.072 6.144 6.144 6.144h95.232l13.312 13.312 2.048 7.168c6.144 21.504 14.336 45.056 25.6 66.56h3.072l6.144 15.36c4.096 10.24 2.048 21.504-6.144 28.672l-63.488 63.488c0 0 0 1.024 0 2.048l102.4 102.4c1.024 1.024 1.024 1.024 2.048 0l71.68-72.704h10.24c6.144 0 12.288 2.048 16.384 5.12 17.408 10.24 44.032 22.528 74.752 30.72l7.168 2.048 13.312 13.312v96.256c0 4.096 3.072 6.144 6.144 6.144h131.072c4.096 0 6.144-3.072 6.144-6.144v-96.256l13.312-13.312 6.144-2.048c33.792-10.24 58.368-20.48 78.848-31.744l6.144-3.072h7.168c8.192 0 16.384 3.072 21.504 8.192l63.488 63.488c1.024 1.024 1.024 1.024 2.048 0l102.4-102.4c0 0 0-1.024 0-2.048l-70.656-70.656v-10.24c0-5.12 1.024-10.24 4.096-15.36l1.024-1.024c10.24-17.408 23.552-44.032 31.744-76.8l2.048-7.168 13.312-13.312h95.232c3.072 0 6.144-5.12 7.168-8.192l1.024-8.192 1.024-1.024v-121.856zM526.336 652.8h-13.312c-56.32 0-107.52-21.504-146.432-59.392-41.984-40.96-64.512-99.328-60.416-158.72 7.168-101.376 91.136-186.368 192.512-192.512 5.12 0 9.216 0 14.336 0 54.272 0 106.496 21.504 144.384 60.416v0c40.96 43.008 63.488 100.352 60.416 158.72-5.12 100.352-90.112 185.344-191.488 191.488zM621.568 337.408c-31.744-31.744-74.752-48.128-118.784-45.056-75.776 5.12-140.288 68.608-145.408 145.408-3.072 45.056 13.312 88.064 45.056 118.784 29.696 29.696 67.584 45.056 110.592 45.056h11.264c75.776-5.12 139.264-68.608 144.384-144.384 1.024-43.008-15.36-87.040-47.104-119.808z" />
</font>
</defs>
</svg>
